World`s biggest lossless archive
Artist
2014 0-9 z y x w v u t s r q p o n m l k j i h g f e d c b a

Amon Amarth - Deceiver Of The Gods '2013

Bitrates:
FLAC:1083 KbpsMP3:320 KbpsALAC:900 Kbps
ArtistAmon Amarth
Album name Deceiver Of The Gods
Date 2013
GenreMelodic Death Metal
Play time 01:03:28
Format FLAC
Carrier CD
Bitrate 1083 Kbps
Size 467.95 Mb
Status Checked    CUE+LOG OK
Price$3.74
Download album

For download albums, larger than 1GB, please use program "Download manager" or any other. For Windows or Mac.

Track list

1. (00:00:00) Amon Amarth - Deceiver of the Gods
2. (00:00:00) Amon Amarth - As Loke Falls
3. (00:00:00) Amon Amarth - Father of the Wolf
4. (00:04:02) Amon Amarth - Shape Shifter
5. (00:00:00) Amon Amarth - Under Siege
6. (00:00:00) Amon Amarth - Blood Eagle
7. (00:00:00) Amon Amarth - We Shall Destroy
8. (00:00:00) Amon Amarth - Hel
9. (00:04:16) Amon Amarth - Coming of the Tide
10. (00:04:39) Amon Amarth - Warriors of the North
0. (00:04:39) -
12. (00:00:00) Amon Amarth - Burning Anvil of Steel
13. (00:00:00) Amon Amarth - Satan Rising
14. (00:03:11) Amon Amarth - Snake Eyes
15. (00:04:19) Amon Amarth - Stand Up to Go Down
11. (00:04:19) -

Archive content

Amon Amarth - Deceiver of the Gods [2013] [Limited] [FLAC]/ - 0.00
Amon Amarth - Deceiver of the Gods [2013] [Limited] [FLAC]/10 - Warriors of the North.flac - 60.30
Amon Amarth - Deceiver of the Gods [2013] [Limited] [FLAC]/05 - Under Siege.flac - 45.82
Amon Amarth - Deceiver of the Gods [2013] [Limited] [FLAC]/09 - Coming of the Tide.flac - 32.78
Amon Amarth - Deceiver of the Gods [2013] [Limited] [FLAC]/spectrogram.png - 0.26
Amon Amarth - Deceiver of the Gods [2013] [Limited] [FLAC]/08 - Hel.flac - 31.85
Amon Amarth - Deceiver of the Gods [2013] [Limited] [FLAC]/Amon Amarth - Deceiver of the Gods [2013] [FLAC].log - 0.01
Amon Amarth - Deceiver of the Gods [2013] [Limited] [FLAC]/01 - Deceiver of the Gods.flac - 31.72
Amon Amarth - Deceiver of the Gods [2013] [Limited] [FLAC]/04 - Shape Shifter.flac - 31.58
Amon Amarth - Deceiver of the Gods [2013] [Limited] [FLAC]/cover.jpg - 0.03
Amon Amarth - Deceiver of the Gods [2013] [Limited] [FLAC]/Under The Influence [2013] [FLAC]/ - 0.00
Amon Amarth - Deceiver of the Gods [2013] [Limited] [FLAC]/Under The Influence [2013] [FLAC]/spectrogram.png - 0.29
Amon Amarth - Deceiver of the Gods [2013] [Limited] [FLAC]/Under The Influence [2013] [FLAC]/02 - Satan Rising.flac - 26.94
Amon Amarth - Deceiver of the Gods [2013] [Limited] [FLAC]/Under The Influence [2013] [FLAC]/03 - Snake Eyes.flac - 24.01
Amon Amarth - Deceiver of the Gods [2013] [Limited] [FLAC]/Under The Influence [2013] [FLAC]/cover.jpg - 0.01
Amon Amarth - Deceiver of the Gods [2013] [Limited] [FLAC]/Under The Influence [2013] [FLAC]/Under The Influence [2013] [Bonus] [FLAC].log - 0.00
Amon Amarth - Deceiver of the Gods [2013] [Limited] [FLAC]/Under The Influence [2013] [FLAC]/01 - Burning Anvil of Steel.flac - 31.55
Amon Amarth - Deceiver of the Gods [2013] [Limited] [FLAC]/Under The Influence [2013] [FLAC]/Under The Influence [2013] [Bonus] [FLAC].cue - 0.00
Amon Amarth - Deceiver of the Gods [2013] [Limited] [FLAC]/Under The Influence [2013] [FLAC]/04 - Stand Up to Go Down.flac - 24.08
Amon Amarth - Deceiver of the Gods [2013] [Limited] [FLAC]/06 - Blood Eagle.flac - 24.88
Amon Amarth - Deceiver of the Gods [2013] [Limited] [FLAC]/Amon Amarth - Deceiver of the Gods [2013] [FLAC].cue - 0.00
Amon Amarth - Deceiver of the Gods [2013] [Limited] [FLAC]/03 - Father of the Wolf.flac - 33.55
Amon Amarth - Deceiver of the Gods [2013] [Limited] [FLAC]/07 - We Shall Destroy.flac - 33.75
Amon Amarth - Deceiver of the Gods [2013] [Limited] [FLAC]/02 - As Loke Falls.flac - 34.51
Show Log file:
X Lossless Decoder version 20130602 (143.2)

XLD extraction logfile from 2013-06-21 13:49:11 +0200

Amon Amarth / Deceiver of the Gods

Used drive : HL-DT-ST DVDRW  GS23N (revision SB03)
Media type : Pressed CD

Ripper mode             : XLD Secure Ripper
Disable audio cache     : OK for the drive with a cache less than 1375KiB
Make use of C2 pointers : NO
Read offset correction  : 667
Max retry count         : 20
Gap status              : Analyzed, Appended (except HTOA)

TOC of the extracted CD
     Track |   Start  |  Length  | Start sector | End sector 
    ---------------------------------------------------------
        1  | 00:00:00 | 04:19:13 |         0    |    19437   
        2  | 04:19:13 | 04:38:60 |     19438    |    40347   
        3  | 08:57:73 | 04:19:50 |     40348    |    59822   
        4  | 13:17:48 | 04:04:39 |     59823    |    78161   
        5  | 17:22:12 | 06:17:45 |     78162    |   106481   
        6  | 23:39:57 | 03:15:61 |    106482    |   121167   
        7  | 26:55:43 | 04:25:44 |    121168    |   141086   
        8  | 31:21:12 | 04:09:70 |    141087    |   159831   
        9  | 35:31:07 | 04:16:18 |    159832    |   179049   
       10  | 39:47:25 | 08:12:06 |    179050    |   215955   

AccurateRip Summary
    Disc not found in AccurateRip DB.

All Tracks
    Album gain               : -9.50 dB
    Peak                     : 0.988739
    Statistics
        Read error                           : 0
        Jitter error (maybe fixed)           : 0
        Retry sector count                   : 0
        Damaged sector count                 : 0

Track 01
    Filename : /Users/Luis/Music/Amon Amarth - Deceiver of the Gods (2013)
[FLAC]/01 Deceiver of the Gods.flac
    Pre-gap length : 00:02:00

    Track gain               : -9.51 dB
    Peak                     : 0.988708
    CRC32 hash (test run)    : 082ABAD0
    CRC32 hash               : 082ABAD0
    CRC32 hash (skip zero)   : F089A9C4
    AccurateRip v1 signature : 7E9FD5E6
    AccurateRip v2 signature : EB80B543
        ->Track not present in AccurateRip database.
    Statistics
        Read error                           : 0
        Jitter error (maybe fixed)           : 0
        Retry sector count                   : 0
        Damaged sector count                 : 0

Track 02
    Filename : /Users/Luis/Music/Amon Amarth - Deceiver of the Gods (2013)
[FLAC]/02 As Loke Falls.flac

    Track gain               : -9.45 dB
    Peak                     : 0.988708
    CRC32 hash (test run)    : A71227DC
    CRC32 hash               : A71227DC
    CRC32 hash (skip zero)   : 55D1F5A9
    AccurateRip v1 signature : 2C9101BB
    AccurateRip v2 signature : D1BD49ED
        ->Track not present in AccurateRip database.
    Statistics
        Read error                           : 0
        Jitter error (maybe fixed)           : 0
        Retry sector count                   : 0
        Damaged sector count                 : 0

Track 03
    Filename : /Users/Luis/Music/Amon Amarth - Deceiver of the Gods (2013)
[FLAC]/03 Father of the Wolf.flac

    Track gain               : -9.72 dB
    Peak                     : 0.988739
    CRC32 hash (test run)    : 36AAF9EC
    CRC32 hash               : 36AAF9EC
    CRC32 hash (skip zero)   : 04230E47
    AccurateRip v1 signature : 89C682CE
    AccurateRip v2 signature : AB9FA84F
        ->Track not present in AccurateRip database.
    Statistics
        Read error                           : 0
        Jitter error (maybe fixed)           : 0
        Retry sector count                   : 0
        Damaged sector count                 : 0

Track 04
    Filename : /Users/Luis/Music/Amon Amarth - Deceiver of the Gods (2013)
[FLAC]/04 Shape Shifter.flac

    Track gain               : -9.90 dB
    Peak                     : 0.988708
    CRC32 hash (test run)    : 69419F34
    CRC32 hash               : 69419F34
    CRC32 hash (skip zero)   : 6550A394
    AccurateRip v1 signature : A557835E
    AccurateRip v2 signature : AB9B13C9
        ->Track not present in AccurateRip database.
    Statistics
        Read error                           : 0
        Jitter error (maybe fixed)           : 0
        Retry sector count                   : 0
        Damaged sector count                 : 0

Track 05
    Filename : /Users/Luis/Music/Amon Amarth - Deceiver of the Gods (2013)
[FLAC]/05 Under Siege.flac
    Pre-gap length : 00:01:74

    Track gain               : -8.94 dB
    Peak                     : 0.988708
    CRC32 hash (test run)    : E73ED451
    CRC32 hash               : E73ED451
    CRC32 hash (skip zero)   : 5D02394A
    AccurateRip v1 signature : FDCA345F
    AccurateRip v2 signature : 9B4B969F
        ->Track not present in AccurateRip database.
    Statistics
        Read error                           : 0
        Jitter error (maybe fixed)           : 0
        Retry sector count                   : 0
        Damaged sector count                 : 0

Track 06
    Filename : /Users/Luis/Music/Amon Amarth - Deceiver of the Gods (2013)
[FLAC]/06 Blood Eagle.flac

    Track gain               : -9.42 dB
    Peak                     : 0.988739
    CRC32 hash (test run)    : 23E9DDD7
    CRC32 hash               : 23E9DDD7
    CRC32 hash (skip zero)   : FB3BC054
    AccurateRip v1 signature : A3CA0200
    AccurateRip v2 signature : 2126D5AC
        ->Track not present in AccurateRip database.
    Statistics
        Read error                           : 0
        Jitter error (maybe fixed)           : 0
        Retry sector count                   : 0
        Damaged sector count                 : 0

Track 07
    Filename : /Users/Luis/Music/Amon Amarth - Deceiver of the Gods (2013)
[FLAC]/07 We Shall Destroy.flac

    Track gain               : -9.04 dB
    Peak                     : 0.988708
    CRC32 hash (test run)    : C47A5A63
    CRC32 hash               : C47A5A63
    CRC32 hash (skip zero)   : 49DDB956
    AccurateRip v1 signature : F0EC1F58
    AccurateRip v2 signature : AABACF4C
        ->Track not present in AccurateRip database.
    Statistics
        Read error                           : 0
        Jitter error (maybe fixed)           : 0
        Retry sector count                   : 0
        Damaged sector count                 : 0

Track 08
    Filename : /Users/Luis/Music/Amon Amarth - Deceiver of the Gods (2013)
[FLAC]/08 Hel.flac

    Track gain               : -9.66 dB
    Peak                     : 0.988708
    CRC32 hash (test run)    : 41776A36
    CRC32 hash               : 41776A36
    CRC32 hash (skip zero)   : DDA00AF1
    AccurateRip v1 signature : B67E350A
    AccurateRip v2 signature : 7D5EBA38
        ->Track not present in AccurateRip database.
    Statistics
        Read error                           : 0
        Jitter error (maybe fixed)           : 0
        Retry sector count                   : 0
        Damaged sector count                 : 0

Track 09
    Filename : /Users/Luis/Music/Amon Amarth - Deceiver of the Gods (2013)
[FLAC]/09 Coming of the Tide.flac

    Track gain               : -9.62 dB
    Peak                     : 0.988739
    CRC32 hash (test run)    : 8E837875
    CRC32 hash               : 8E837875
    CRC32 hash (skip zero)   : 8A0DF4DF
    AccurateRip v1 signature : 183BB820
    AccurateRip v2 signature : 8BC224C7
        ->Track not present in AccurateRip database.
    Statistics
        Read error                           : 0
        Jitter error (maybe fixed)           : 0
        Retry sector count                   : 0
        Damaged sector count                 : 0

Track 10
    Filename : /Users/Luis/Music/Amon Amarth - Deceiver of the Gods (2013)
[FLAC]/10 Warriors of the North.flac
    Pre-gap length : 00:00:11

    Track gain               : -9.41 dB
    Peak                     : 0.988708
    CRC32 hash (test run)    : 8DED1EC3
    CRC32 hash               : 8DED1EC3
    CRC32 hash (skip zero)   : 881821C0
    AccurateRip v1 signature : 0323AF09
    AccurateRip v2 signature : B1DE68FA
        ->Track not present in AccurateRip database.
    Statistics
        Read error                           : 0
        Jitter error (maybe fixed)           : 0
        Retry sector count                   : 0
        Damaged sector count                 : 0

No errors occurred

End of status report

Comments