World`s biggest lossless archive
Artist
2014 0-9 z y x w v u t s r q p o n m l k j i h g f e d c b a

Power From Hell - Lust And Violence (reissue 2012) '2011

Bitrates:
FLAC:558 KbpsMP3:320 KbpsALAC:900 Kbps
ArtistPower From Hell
Album name Lust And Violence (reissue 2012)
Date 2011
GenreThrash Metal
Play time 00:43:34
Format FLAC
Carrier CD
Bitrate 558 Kbps
Size 174.08 Mb
Status Checked    CUE+LOG OK
Price$1.39
Download album

For download albums, larger than 1GB, please use program "Download manager" or any other. For Windows or Mac.

Other FLAC albums of Power From Hell

Track list

1. (00:04:55) Power From Hell - Black Angel
2. (00:03:57) Power From Hell - The Old Masters (Death Metal)
3. (00:02:41) Power From Hell - '29 Fuck'
4. (00:02:54) Power From Hell - Power from Hell (Disturbing the Priest)
5. (00:03:20) Power From Hell - Confessions of Whore
6. (00:02:55) Power From Hell - Satan's Bride
7. (00:02:59) Power From Hell - Headbanger......The Ripper
8. (00:03:52) Power From Hell - Lust in My Soul
9. (00:02:25) Power From Hell - The True Metal
10. (00:04:05) Power From Hell - The Metal Is Sick but Never Die
11. (00:02:56) Power From Hell - Ser Diabolico
12. (00:02:34) Power From Hell - Slut (G.B.H. cover)
13. (00:04:01) Power From Hell - Me and the Devil Blues
14. (00:04:55) Power From Hell - Black Angel
15. (00:03:57) Power From Hell - The Old Masters (Death Metal)
16. (00:02:41) Power From Hell - '29 Fuck'
17. (00:02:54) Power From Hell - Power from Hell (Disturbing the Priest)
18. (00:03:20) Power From Hell - Confessions of Whore
19. (00:02:55) Power From Hell - Satan's Bride
20. (00:02:59) Power From Hell - Headbanger......The Ripper
21. (00:03:52) Power From Hell - Lust in My Soul
22. (00:02:25) Power From Hell - The True Metal
23. (00:04:05) Power From Hell - The Metal Is Sick but Never Die
24. (00:02:56) Power From Hell - Ser Diabolico
25. (00:02:34) Power From Hell - Slut (G.B.H. cover)

Archive content

Power from Hell - 2011 - Lust and Violence (Reissue 2012).cue - 0.00
Power from Hell - 2011 - Lust and Violence (Reissue 2012).flac - 174.07
Power from Hell - 2011 - Lust and Violence (Reissue 2012).log - 0.01
Power from Hell - 2011 - Lust and Violence (Reissue 2012).flac.cue - 0.00
Show Log file:
Exact Audio Copy V1.0 beta 3 from 29. August 2011

EAC extraction logfile from 5. August 2013, 20:40

Power from Hell / Lust and Violence (Reissue 2012)

Used drive  : Optiarc DVD RW AD-7260S   Adapter: 1  ID: 1

Read mode               : Secure
Utilize accurate stream : Yes
Defeat audio cache      : Yes
Make use of C2 pointers : No

Read offset correction                      : 48
Overread into Lead-In and Lead-Out          : No
Fill up missing offset samples with silence : Yes
Delete leading and trailing silent blocks   : No
Null samples used in CRC calculations       : Yes
Used interface                              : Native Win32 interface for Win NT
& 2000

Used output format : Internal WAV Routines
Sample format      : 44.100 Hz; 16 Bit; Stereo


TOC of the extracted CD

     Track |   Start  |  Length  | Start sector | End sector 
    ---------------------------------------------------------
        1  |  0:00.00 |  4:55.22 |         0    |    22146   
        2  |  4:55.22 |  3:57.13 |     22147    |    39934   
        3  |  8:52.35 |  2:40.46 |     39935    |    51980   
        4  | 11:33.06 |  2:54.36 |     51981    |    65066   
        5  | 14:27.42 |  3:19.71 |     65067    |    80062   
        6  | 17:47.38 |  2:55.00 |     80063    |    93187   
        7  | 20:42.38 |  2:58.71 |     93188    |   106608   
        8  | 23:41.34 |  3:52.28 |    106609    |   124036   
        9  | 27:33.62 |  2:24.33 |    124037    |   134869   
       10  | 29:58.20 |  4:05.07 |    134870    |   153251   
       11  | 34:03.27 |  2:56.07 |    153252    |   166458   
       12  | 36:59.34 |  2:33.42 |    166459    |   177975   
       13  | 39:33.01 |  4:01.12 |    177976    |   196062   


Range status and errors

Selected range

     Filename C:Мои документыPower from Hell - 2011 - Lust and
Violence (Reissue 2012).wav

     Peak level 100.0 %
     Extraction speed 3.6 X
     Range quality 99.9 %
     Test CRC 0E56CCD0
     Copy CRC 0E56CCD0
     Copy OK

No errors occurred

 
AccurateRip summary
 
Track  1  not present in database
Track  2  not present in database
Track  3  not present in database
Track  4  not present in database
Track  5  not present in database
Track  6  not present in database
Track  7  not present in database
Track  8  not present in database
Track  9  not present in database
Track 10  not present in database
Track 11  not present in database
Track 12  not present in database
Track 13  not present in database
 
None of the tracks are present in the AccurateRip database

End of status report

---- CUETools DB Plugin V2.1.4

[CTDB TOCID: gQYE5ZRWyN_fEv3WSakRRndRT.U-] disk not present in database
Submit result: gQYE5ZRWyN_fEv3WSakRRndRT.U- has been uploaded


==== Log checksum
3DCAAA0C2D84006E1AC7FC4A5566E6D4D4E748117535768AF81CAECAD2075336 ====

Comments