World`s biggest lossless archive
Artist
2014 0-9 z y x w v u t s r q p o n m l k j i h g f e d c b a

Gregorian - Masters Of Chants 9 (Limited Edition) '2013

Masters Of Chants 9 (Limited Edition)
ArtistGregorian
Album name Masters Of Chants 9 (Limited Edition)
Date 2013
GenreAmbient
Play time 01:05:07
Format FLAC
Media CD
Bitrate 951 Kbps
Size 511.02 Mb
Price$4.09
Download album

For download albums, larger than 1GB, please use program "Download manager" or any other. For Windows or Mac.

Track list

1. (00:05:51) Gregorian feat. Narcis - Gloria
2. (00:05:36) Gregorian - Where The Streets Have No Name
3. (00:04:55) Gregorian feat. Amelia Brightman - Now We Are Free
4. (00:04:18) Gregorian - Desire
5. (00:05:43) Gregorian - Everybody Hurts
6. (00:03:40) Gregorian feat. Amelia Brightman - Back To You
7. (00:05:05) Gregorian - Leningrad
8. (00:04:29) Gregorian - Stay
9. (00:05:21) Gregorian - People Help The People
10. (00:05:42) Gregorian feat. Amelia Brightman - Woman In Chains
11. (00:04:38) Gregorian - Precious
12. (00:04:59) Gregorian - Ready To Go Home
13. (00:04:45) Gregorian - What Now My Love

Archive content

Scans/ - 0.00
Scans/back.tif - 29.59
Scans/cd (matrix).tif - 1.71
Scans/cd.tif - 14.16
Scans/dvd (matrix).tif - 1.74
Scans/dvd.tif - 12.93
Scans/front.tif - 37.34
Scans/preview.jpg - 0.40
00. Gregorian - Masters Of Chant 9.cue - 0.00
00. Gregorian - Masters Of Chant 9.log - 0.02
01. Gregorian feat. Narcis - Gloria.flac - 35.96
02. Gregorian - Where The Streets Have No Name.flac - 36.23
03. Gregorian feat. Amelia Brightman - Now We Are Free.flac - 32.19
04. Gregorian - Desire.flac - 27.56
05. Gregorian - Everybody Hurts.flac - 33.95
06. Gregorian feat. Amelia Brightman - Back To You.flac - 21.51
07. Gregorian - Leningrad.flac - 33.61
08. Gregorian - Stay.flac - 28.36
09. Gregorian - People Help The People.flac - 35.09
10. Gregorian feat. Amelia Brightman - Woman In Chains.flac - 38.82
11. Gregorian - Precious.flac - 28.27
12. Gregorian - Ready To Go Home.flac - 31.08
13. Gregorian - What Now My Love.flac - 31.27
Show Log file:
Exact Audio Copy V1.0 beta 3 from 29. August 2011

EAC extraction logfile from 23. October 2013, 7:18

Gregorian / Masters Of Chant 9

Used drive  : PLEXTOR DVDR   PX-760A   Adapter: 0  ID: 1

Read mode               : Secure
Utilize accurate stream : Yes
Defeat audio cache      : Yes
Make use of C2 pointers : No

Read offset correction                      : 30
Overread into Lead-In and Lead-Out          : Yes
Fill up missing offset samples with silence : Yes
Delete leading and trailing silent blocks   : No
Null samples used in CRC calculations       : Yes
Used interface                              : Installed external ASPI interface
Gap handling                                : Appended to previous track

Used output format              : User Defined Encoder
Selected bitrate                : 1024 kBit/s
Quality                         : High
Add ID3 tag                     : No
Command line compressor         : C:Program Files (x86)Exact Audio
CopyFlacflac.exe
Additional command line options : -8 -V -T "ARTIST=%artist%" -T "TITLE=%title%"
-T "ALBUM=%albumtitle%" -T "DATE=%year%" -T "TRACKNUMBER=%tracknr%" -T
"GENRE=%genre%" -T "COMMENT=ripped by DrStandBy" %source%


TOC of the extracted CD

     Track |   Start  |  Length  | Start sector | End sector 
    ---------------------------------------------------------
        1  |  0:00.00 |  5:51.64 |         0    |    26388   
        2  |  5:51.64 |  5:36.20 |     26389    |    51608   
        3  | 11:28.09 |  4:55.32 |     51609    |    73765   
        4  | 16:23.41 |  4:18.74 |     73766    |    93189   
        5  | 20:42.40 |  5:43.69 |     93190    |   118983   
        6  | 26:26.34 |  3:40.08 |    118984    |   135491   
        7  | 30:06.42 |  5:05.04 |    135492    |   158370   
        8  | 35:11.46 |  4:29.18 |    158371    |   178563   
        9  | 39:40.64 |  5:21.31 |    178564    |   202669   
       10  | 45:02.20 |  5:42.21 |    202670    |   228340   
       11  | 50:44.41 |  4:38.63 |    228341    |   249253   
       12  | 55:23.29 |  4:59.39 |    249254    |   271717   
       13  | 60:22.68 |  4:45.32 |    271718    |   293124   


Track  1

     Filename E:GregorianAlbums2013 - Masters Of Chants 9 (Saturn Exclusive)
(88883 78027 2)1. Gregorian feat. Narcis - Gloria.wav

     Pre-gap length  0:00:02.00

     Peak level 98.2 %
     Extraction speed 2.2 X
     Track quality 100.0 %
     Test CRC 7C8A5C30
     Copy CRC 7C8A5C30
     Cannot be verified as accurate (confidence 1)  [3D4E43BB], AccurateRip
returned [6A802E5E]  (AR v2)
     Copy OK

Track  2

     Filename E:GregorianAlbums2013 - Masters Of Chants 9 (Saturn Exclusive)
(88883 78027 2)2. Gregorian - Where The Streets Have No Name.wav

     Peak level 98.2 %
     Extraction speed 2.2 X
     Track quality 100.0 %
     Test CRC 1121F939
     Copy CRC 1121F939
     Cannot be verified as accurate (confidence 1)  [89EF6C89], AccurateRip
returned [2932FE18]  (AR v2)
     Copy OK

Track  3

     Filename E:GregorianAlbums2013 - Masters Of Chants 9 (Saturn Exclusive)
(88883 78027 2)3. Gregorian feat. Amelia Brightman - Now We Are Free.wav

     Peak level 98.2 %
     Extraction speed 2.2 X
     Track quality 100.0 %
     Test CRC D40788A7
     Copy CRC D40788A7
     Cannot be verified as accurate (confidence 1)  [283C35CC], AccurateRip
returned [613B5118]  (AR v2)
     Copy OK

Track  4

     Filename E:GregorianAlbums2013 - Masters Of Chants 9 (Saturn Exclusive)
(88883 78027 2)4. Gregorian - Desire.wav

     Peak level 98.2 %
     Extraction speed 2.2 X
     Track quality 100.0 %
     Test CRC BC81DF4C
     Copy CRC BC81DF4C
     Cannot be verified as accurate (confidence 1)  [5F220974], AccurateRip
returned [C274396D]  (AR v2)
     Copy OK

Track  5

     Filename E:GregorianAlbums2013 - Masters Of Chants 9 (Saturn Exclusive)
(88883 78027 2)5. Gregorian - Everybody Hurts.wav

     Peak level 98.3 %
     Extraction speed 1.7 X
     Track quality 99.9 %
     Test CRC 66047A2A
     Copy CRC 66047A2A
     Cannot be verified as accurate (confidence 1)  [365D814F], AccurateRip
returned [99ED7889]  (AR v2)
     Copy OK

Track  6

     Filename E:GregorianAlbums2013 - Masters Of Chants 9 (Saturn Exclusive)
(88883 78027 2)6. Gregorian feat. Amelia Brightman - Back To You.wav

     Peak level 98.2 %
     Extraction speed 1.5 X
     Track quality 99.9 %
     Test CRC 20E35639
     Copy CRC 20E35639
     Cannot be verified as accurate (confidence 1)  [9FE50053], AccurateRip
returned [22A4B5FA]  (AR v2)
     Copy OK

Track  7

     Filename E:GregorianAlbums2013 - Masters Of Chants 9 (Saturn Exclusive)
(88883 78027 2)7. Gregorian - Leningrad.wav

     Peak level 98.2 %
     Extraction speed 2.2 X
     Track quality 100.0 %
     Test CRC 7F57C5E7
     Copy CRC 7F57C5E7
     Cannot be verified as accurate (confidence 1)  [AA891210], AccurateRip
returned [21E46108]  (AR v2)
     Copy OK

Track  8

     Filename E:GregorianAlbums2013 - Masters Of Chants 9 (Saturn Exclusive)
(88883 78027 2)8. Gregorian - Stay.wav

     Peak level 99.9 %
     Extraction speed 1.6 X
     Track quality 99.9 %
     Test CRC 64B0483A
     Copy CRC 64B0483A
     Cannot be verified as accurate (confidence 1)  [B45DCEBA], AccurateRip
returned [184C8547]  (AR v2)
     Copy OK

Track  9

     Filename E:GregorianAlbums2013 - Masters Of Chants 9 (Saturn Exclusive)
(88883 78027 2)9. Gregorian - People Help The People.wav

     Peak level 98.2 %
     Extraction speed 2.2 X
     Track quality 100.0 %
     Test CRC E9B73EDA
     Copy CRC E9B73EDA
     Cannot be verified as accurate (confidence 1)  [40E85688], AccurateRip
returned [17D96455]  (AR v2)
     Copy OK

Track 10

     Filename E:GregorianAlbums2013 - Masters Of Chants 9 (Saturn Exclusive)
(88883 78027 2)10. Gregorian feat. Amelia Brightman - Woman In Chains.wav

     Peak level 98.2 %
     Extraction speed 1.7 X
     Track quality 99.9 %
     Test CRC 646D5D1B
     Copy CRC 646D5D1B
     Cannot be verified as accurate (confidence 1)  [F3988ED4], AccurateRip
returned [4FF395A3]  (AR v2)
     Copy OK

Track 11

     Filename E:GregorianAlbums2013 - Masters Of Chants 9 (Saturn Exclusive)
(88883 78027 2)11. Gregorian - Precious.wav

     Peak level 98.9 %
     Extraction speed 2.2 X
     Track quality 100.0 %
     Test CRC 4814990C
     Copy CRC 4814990C
     Cannot be verified as accurate (confidence 1)  [C39049F3], AccurateRip
returned [01584867]  (AR v2)
     Copy OK

Track 12

     Filename E:GregorianAlbums2013 - Masters Of Chants 9 (Saturn Exclusive)
(88883 78027 2)12. Gregorian - Ready To Go Home.wav

     Peak level 98.2 %
     Extraction speed 2.2 X
     Track quality 100.0 %
     Test CRC 56EDCCB3
     Copy CRC 56EDCCB3
     Cannot be verified as accurate (confidence 1)  [56989446], AccurateRip
returned [0824111B]  (AR v2)
     Copy OK

Track 13

     Filename E:GregorianAlbums2013 - Masters Of Chants 9 (Saturn Exclusive)
(88883 78027 2)13. Gregorian - What Now My Love.wav

     Peak level 98.2 %
     Extraction speed 2.4 X
     Track quality 100.0 %
     Test CRC 17ACC0B4
     Copy CRC 17ACC0B4
     Cannot be verified as accurate (confidence 1)  [76C18EAA], AccurateRip
returned [5642E59E]  (AR v2)
     Copy OK


No tracks could be verified as accurate
You may have a different pressing from the one(s) in the database

No errors occurred

End of status report

---- CUETools DB Plugin V2.1.4

[CTDB TOCID: AP3YqvhA4aYKuDMbud4s9mYS4cU-] found
Submit result: AP3YqvhA4aYKuDMbud4s9mYS4cU- has been confirmed
Track | CTDB Status
  1   | (1/1) Accurately ripped
  2   | (1/1) Accurately ripped
  3   | (1/1) Accurately ripped
  4   | (1/1) Accurately ripped
  5   | (1/1) Accurately ripped
  6   | (1/1) Accurately ripped
  7   | (1/1) Accurately ripped
  8   | (1/1) Accurately ripped
  9   | (1/1) Accurately ripped
 10   | (1/1) Accurately ripped
 11   | (1/1) Accurately ripped
 12   | (1/1) Accurately ripped
 13   | (1/1) Accurately ripped


==== Log checksum
38E6DED241A33C3681CEE0966EC1025DDFF8CF0876E42D25B7E2B2F6A9A28A73 ====

Comments