World`s biggest lossless archive
Artist
2014 0-9 z y x w v u t s r q p o n m l k j i h g f e d c b a

Chvrches - The Bones Of What You Believe '2013

The Bones Of What You Believe
ArtistChvrches
Album name The Bones Of What You Believe
Date 2013
GenrePop
Play time 00:54:46
Format FLAC
Media CD
Bitrate 1022 Kbps
Size 378.97 Mb
Price$3.03
Download album

For download albums, larger than 1GB, please use program "Download manager" or any other. For Windows or Mac.

Track list

1. (00:03:10) CHVRCHES - The Mother We Share
2. (00:03:31) CHVRCHES - We Sink
3. (00:03:52) CHVRCHES - Gun
4. (00:04:45) CHVRCHES - Tether
5. (00:03:39) CHVRCHES - Lies
6. (00:04:30) CHVRCHES - Under the Tide
7. (00:03:44) CHVRCHES - Recover
8. (00:00:00) CHVRCHES - Night Sky
9. (00:03:56) CHVRCHES - Science/Visions
10. (00:03:01) CHVRCHES - Lungs
11. (00:04:08) CHVRCHES - By the Throat
12. (00:05:36) CHVRCHES - You Caught the Light
13. (00:00:00) CHVRCHES - Strong Hand [Bonus Track]
14. (00:03:12) CHVRCHES - The Mother We Share (Errors Remix) [Bonus Track]
0. (00:03:12) CHVRCHES -

Archive content

Chvrches_2013_The.Bones.of.What.You.Believe.[FLAC]/ - 0.00
Chvrches_2013_The.Bones.of.What.You.Believe.[FLAC]/01. The Mother We Share.flac - 22.93
Chvrches_2013_The.Bones.of.What.You.Believe.[FLAC]/02. We Sink.flac - 26.01
Chvrches_2013_The.Bones.of.What.You.Believe.[FLAC]/03. Gun.flac - 27.96
Chvrches_2013_The.Bones.of.What.You.Believe.[FLAC]/04. Tether.flac - 31.41
Chvrches_2013_The.Bones.of.What.You.Believe.[FLAC]/05. Lies.flac - 26.63
Chvrches_2013_The.Bones.of.What.You.Believe.[FLAC]/06. Under the Tide.flac - 30.36
Chvrches_2013_The.Bones.of.What.You.Believe.[FLAC]/07. Recover.flac - 27.53
Chvrches_2013_The.Bones.of.What.You.Believe.[FLAC]/08. Night Sky.flac - 27.33
Chvrches_2013_The.Bones.of.What.You.Believe.[FLAC]/09. Science,Visions.flac - 26.51
Chvrches_2013_The.Bones.of.What.You.Believe.[FLAC]/10. Lungs.flac - 21.59
Chvrches_2013_The.Bones.of.What.You.Believe.[FLAC]/11. By the Throat.flac - 28.88
Chvrches_2013_The.Bones.of.What.You.Believe.[FLAC]/12. You Caught the Light.flac - 34.28
Chvrches_2013_The.Bones.of.What.You.Believe.[FLAC]/13. Strong Hand [Bonus Track].flac - 24.83
Chvrches_2013_The.Bones.of.What.You.Believe.[FLAC]/14. The Mother We Share (Errors Remix) [Bonus Track].flac - 22.22
Chvrches_2013_The.Bones.of.What.You.Believe.[FLAC]/CDImage.cue - 0.00
Chvrches_2013_The.Bones.of.What.You.Believe.[FLAC]/CDImage.log - 0.02
Chvrches_2013_The.Bones.of.What.You.Believe.[FLAC]/cover.jpg - 0.47
Show Log file:
Exact Audio Copy V1.0 beta 3 from 29. August 2011

EAC extraction logfile from 19. September 2013, 11:16

CHVRCHES / The Bones of What You Believe

Used drive  : TSSTcorpCDDVDW SH-S203D   Adapter: 2  ID: 0

Read mode               : Secure
Utilize accurate stream : Yes
Defeat audio cache      : Yes
Make use of C2 pointers : No

Read offset correction                      : 6
Overread into Lead-In and Lead-Out          : No
Fill up missing offset samples with silence : Yes
Delete leading and trailing silent blocks   : No
Null samples used in CRC calculations       : Yes
Used interface                              : Native Win32 interface for Win NT
& 2000
Gap handling                                : Appended to previous track

Used output format              : User Defined Encoder
Selected bitrate                : 768 kBit/s
Quality                         : High
Add ID3 tag                     : No
Command line compressor         : C:Program Files (x86)Exact Audio
Copyflac-1.3.0-iclflac.exe
Additional command line options : -8 -V -T "ARTIST=%artist%" -T "TITLE=%title%"
-T "ALBUM=%albumtitle%" -T "DATE=%year%" -T "TRACKNUMBER=%tracknr%" -T
"GENRE=%genre%" -T "PERFORMER=%albuminterpret%" -T "COMPOSER=%composer%"
%haslyrics%--tag-from-file=LYRICS="%lyricsfile%"%haslyrics% -T
"ALBUMARTIST=%albumartist%" -T "DISCNUMBER=%cdnumber%" -T
"TOTALDISCS=%totalcds%" -T "TOTALTRACKS=%numtracks%" -T "COMMENT=%comment%"
%source% -o %dest%


TOC of the extracted CD

     Track |   Start  |  Length  | Start sector | End sector 
    ---------------------------------------------------------
        1  |  0:00.00 |  3:12.09 |         0    |    14408   
        2  |  3:12.09 |  3:34.28 |     14409    |    30486   
        3  |  6:46.37 |  3:53.74 |     30487    |    48035   
        4  | 10:40.36 |  4:46.30 |     48036    |    69515   
        5  | 15:26.66 |  3:41.04 |     69516    |    86094   
        6  | 19:07.70 |  4:32.09 |     86095    |   106503   
        7  | 23:40.04 |  3:45.64 |    106504    |   123442   
        8  | 27:25.68 |  3:51.07 |    123443    |   140774   
        9  | 31:17.00 |  3:58.06 |    140775    |   158630   
       10  | 35:15.06 |  3:02.65 |    158631    |   172345   
       11  | 38:17.71 |  4:09.27 |    172346    |   191047   
       12  | 42:27.23 |  5:36.74 |    191048    |   216321   
       13  | 48:04.22 |  3:25.04 |    216322    |   231700   
       14  | 51:29.26 |  3:17.46 |    231701    |   246521   


Track  1

     Filename D:Chvrches_2013_The.Bones.of.What.You.Believe.[FLAC]1. The Mother
We Share.wav

     Pre-gap length  0:00:02.00

     Peak level 100.0 %
     Extraction speed 2.5 X
     Track quality 100.0 %
     Test CRC 7967F5B2
     Copy CRC 7967F5B2
     Track not present in AccurateRip database
     Copy OK

Track  2

     Filename D:Chvrches_2013_The.Bones.of.What.You.Believe.[FLAC]2. We
Sink.wav

     Pre-gap length  0:00:01.96

     Peak level 100.0 %
     Extraction speed 2.8 X
     Track quality 100.0 %
     Test CRC E6839BD0
     Copy CRC E6839BD0
     Track not present in AccurateRip database
     Copy OK

Track  3

     Filename D:Chvrches_2013_The.Bones.of.What.You.Believe.[FLAC]3. Gun.wav

     Pre-gap length  0:00:02.60

     Peak level 100.0 %
     Extraction speed 3.0 X
     Track quality 100.0 %
     Test CRC 16582D03
     Copy CRC 16582D03
     Track not present in AccurateRip database
     Copy OK

Track  4

     Filename D:Chvrches_2013_The.Bones.of.What.You.Believe.[FLAC]4.
Tether.wav

     Pre-gap length  0:00:01.88

     Peak level 100.0 %
     Extraction speed 3.4 X
     Track quality 100.0 %
     Test CRC 190DAB04
     Copy CRC 190DAB04
     Track not present in AccurateRip database
     Copy OK

Track  5

     Filename D:Chvrches_2013_The.Bones.of.What.You.Believe.[FLAC]5. Lies.wav

     Pre-gap length  0:00:00.80

     Peak level 100.0 %
     Extraction speed 3.5 X
     Track quality 100.0 %
     Test CRC 5295419E
     Copy CRC 5295419E
     Track not present in AccurateRip database
     Copy OK

Track  6

     Filename D:Chvrches_2013_The.Bones.of.What.You.Believe.[FLAC]6. Under the
Tide.wav

     Pre-gap length  0:00:01.18

     Peak level 100.0 %
     Extraction speed 3.8 X
     Track quality 100.0 %
     Test CRC 058254B2
     Copy CRC 058254B2
     Track not present in AccurateRip database
     Copy OK

Track  7

     Filename D:Chvrches_2013_The.Bones.of.What.You.Believe.[FLAC]7.
Recover.wav

     Pre-gap length  0:00:01.17

     Peak level 100.0 %
     Extraction speed 3.9 X
     Track quality 100.0 %
     Test CRC BFD69106
     Copy CRC BFD69106
     Track not present in AccurateRip database
     Copy OK

Track  8

     Filename D:Chvrches_2013_The.Bones.of.What.You.Believe.[FLAC]8. Night
Sky.wav

     Pre-gap length  0:00:01.61

     Peak level 100.0 %
     Extraction speed 3.2 X
     Track quality 99.9 %
     Test CRC D1D34BC3
     Copy CRC D1D34BC3
     Track not present in AccurateRip database
     Copy OK

Track  9

     Filename D:Chvrches_2013_The.Bones.of.What.You.Believe.[FLAC]9.
Science,Visions.wav

     Peak level 100.0 %
     Extraction speed 4.3 X
     Track quality 100.0 %
     Test CRC F04A4808
     Copy CRC F04A4808
     Track not present in AccurateRip database
     Copy OK

Track 10

     Filename D:Chvrches_2013_The.Bones.of.What.You.Believe.[FLAC]10. Lungs.wav

     Pre-gap length  0:00:01.84

     Peak level 100.0 %
     Extraction speed 4.2 X
     Track quality 100.0 %
     Test CRC D09FBE70
     Copy CRC D09FBE70
     Track not present in AccurateRip database
     Copy OK

Track 11

     Filename D:Chvrches_2013_The.Bones.of.What.You.Believe.[FLAC]11. By the
Throat.wav

     Pre-gap length  0:00:01.40

     Peak level 100.0 %
     Extraction speed 4.6 X
     Track quality 100.0 %
     Test CRC A71FB77E
     Copy CRC A71FB77E
     Track not present in AccurateRip database
     Copy OK

Track 12

     Filename D:Chvrches_2013_The.Bones.of.What.You.Believe.[FLAC]12. You Caught
the Light.wav

     Pre-gap length  0:00:00.74

     Peak level 100.0 %
     Extraction speed 4.1 X
     Track quality 99.9 %
     Test CRC 37564820
     Copy CRC 37564820
     Track not present in AccurateRip database
     Copy OK

Track 13

     Filename D:Chvrches_2013_The.Bones.of.What.You.Believe.[FLAC]13. Strong
Hand [Bonus Track].wav

     Pre-gap length  0:00:00.57

     Peak level 100.0 %
     Extraction speed 4.8 X
     Track quality 100.0 %
     Test CRC 079A137B
     Copy CRC 079A137B
     Track not present in AccurateRip database
     Copy OK

Track 14

     Filename D:Chvrches_2013_The.Bones.of.What.You.Believe.[FLAC]14. The Mother
We Share (Errors Remix) [Bonus Track].wav

     Peak level 96.5 %
     Extraction speed 4.9 X
     Track quality 100.0 %
     Test CRC 645DA326
     Copy CRC 645DA326
     Track not present in AccurateRip database
     Copy OK


None of the tracks are present in the AccurateRip database

No errors occurred

End of status report

---- CUETools DB Plugin V2.1.4

[CTDB TOCID: N_Cvtcn3L5I4EBFMFE74RVt4hSU-] found
Submit result: N_Cvtcn3L5I4EBFMFE74RVt4hSU- has been confirmed
Track | CTDB Status
  1   | (1/1) Accurately ripped
  2   | (1/1) Accurately ripped
  3   | (1/1) Accurately ripped
  4   | (1/1) Accurately ripped
  5   | (1/1) Accurately ripped
  6   | (1/1) Accurately ripped
  7   | (1/1) Accurately ripped
  8   | (1/1) Accurately ripped
  9   | (1/1) Accurately ripped
 10   | (1/1) Accurately ripped
 11   | (1/1) Accurately ripped
 12   | (1/1) Accurately ripped
 13   | (1/1) Accurately ripped
 14   | (1/1) Accurately ripped


==== Log checksum
9D8F6901B3DAF52C15038F31D05F0AA5720D54EC89FAA658C96D8292DBEB12E3 ====

Comments

  • Type of view:
  • Tile
  • List