World`s biggest lossless archive
Artist
2014 0-9 z y x w v u t s r q p o n m l k j i h g f e d c b a

Van Halen - Van Halen III '1998

Bitrates:
FLAC:1041 KbpsMP3:320 KbpsALAC:900 Kbps
ArtistVan Halen
Album name Van Halen III
Date 1998
GenreRock
Play time 01:05:24
Format FLAC
Media CD
Bitrate 1041 Kbps
Size 450.97 Mb
Status Checked    CUE+LOG OK
Price$3.61
Download album

For download albums, larger than 1GB, please use program "Download manager" or any other. For Windows or Mac.

Track list

1. (00:00:00) Van Halen - Neworld
2. (00:00:00) Van Halen - Without You
3. (00:00:01) Van Halen - One I Want
4. (00:00:00) Van Halen - From Afar
5. (00:00:04) Van Halen - Dirty Water Dog
6. (00:00:03) Van Halen - Once
7. (00:00:02) Van Halen - Fire In The Hole
8. (00:00:04) Van Halen - Josephina
9. (00:00:03) Van Halen - Year To The Day
10. (00:00:02) Van Halen - Primary
11. (00:00:00) Van Halen - Ballot Or The Bullet
12. (00:01:42) Van Halen - How Many Say I

Archive content

01 - Neworld.flac - 8.18
02 - Without You.flac - 48.21
03 - One I Want.flac - 39.58
04 - From Afar.flac - 36.40
05 - Dirty Water Dog.flac - 36.64
06 - Once.flac - 50.59
07 - Fire In The Hole.flac - 38.28
08 - Josephina.flac - 36.23
09 - Year To The Day.flac - 53.02
10 - Primary.flac - 6.27
11 - Ballot Or The Bullet.flac - 37.18
12 - How Many Say I.flac - 34.30
Van Halen III. - compliant - flac.CUE - 0.00
Van Halen III.log - 0.00
Artwork/ - 0.00
Artwork/Van Halen - Van Halen III - Back - Inside.jpg - 2.47
Artwork/Van Halen - Van Halen III - Back.jpg - 1.90
Artwork/Van Halen - Van Halen III - Cd.jpg - 1.45
Artwork/Van Halen - Van Halen III - Front - Inside 1.jpg - 3.33
Artwork/Van Halen - Van Halen III - Front - Inside 2.jpg - 3.51
Artwork/Van Halen - Van Halen III - Front - Inside 3.jpg - 4.64
Artwork/Van Halen - Van Halen III - Front - Inside 4.jpg - 4.59
Artwork/Van Halen - Van Halen III - Front.jpg - 4.29
Artwork/van_halen_iii.jpg - 0.03
Show Log file:
EAC extraction logfile from 5. April 2007, 18:37 for CD
Van Halen / Van Halen III

Used drive  : PIONEER DVD-RW  DVR-111D   Adapter: 1  ID: 3
Read mode   : Secure with NO C2, accurate stream, disable cache
Read offset correction : 48
Overread into Lead-In and Lead-Out : No

Used output format : C:flac-1.1.4-winbinflac.exe   (User Defined Encoder)
                     320 kBit/s
                     Additional command line options : -8 -V -T "artist=%a" -T
"title=%t" -T "album=%g" -T "date=%y" -T "tracknumber=%n" -T "genre=%m" %s

Other options      : 
    Fill up missing offset samples with silence : Yes
    Delete leading and trailing silent blocks : No
    Installed external ASPI interface


Track  1
     Filename D:Van Halen - Van Halen III1 - Neworld.wav

     Pre-gap length  0:00:02.00

     Peak level 54.9 %
     Track quality 99.8 %
     Test CRC 903F83F0
     Copy CRC 903F83F0
     Copy OK

Track  2
     Filename D:Van Halen - Van Halen III2 - Without You.wav

     Peak level 100.0 %
     Track quality 100.0 %
     Test CRC CDDFAFE3
     Copy CRC CDDFAFE3
     Copy OK

Track  3
     Filename D:Van Halen - Van Halen III3 - One I Want.wav

     Pre-gap length  0:00:01.53

     Peak level 98.1 %
     Track quality 100.0 %
     Test CRC 6CCEAC57
     Copy CRC 6CCEAC57
     Copy OK

Track  4
     Filename D:Van Halen - Van Halen III4 - From Afar.wav

     Peak level 98.0 %
     Track quality 100.0 %
     Test CRC 4D255681
     Copy CRC 4D255681
     Copy OK

Track  5
     Filename D:Van Halen - Van Halen III5 - Dirty Water Dog.wav

     Pre-gap length  0:00:04.47

     Peak level 100.0 %
     Track quality 100.0 %
     Test CRC D420B375
     Copy CRC D420B375
     Copy OK

Track  6
     Filename D:Van Halen - Van Halen III6 - Once.wav

     Pre-gap length  0:00:03.05

     Peak level 94.7 %
     Track quality 99.9 %
     Test CRC 1AB442C8
     Copy CRC 1AB442C8
     Copy OK

Track  7
     Filename D:Van Halen - Van Halen III7 - Fire In The Hole.wav

     Pre-gap length  0:00:02.43

     Peak level 99.9 %
     Track quality 100.0 %
     Test CRC C6C76B86
     Copy CRC C6C76B86
     Copy OK

Track  8
     Filename D:Van Halen - Van Halen III8 - Josephina.wav

     Pre-gap length  0:00:04.40

     Peak level 94.4 %
     Track quality 100.0 %
     Test CRC 2AAE49EB
     Copy CRC 2AAE49EB
     Copy OK

Track  9
     Filename D:Van Halen - Van Halen III9 - Year To The Day.wav

     Pre-gap length  0:00:03.60

     Peak level 97.7 %
     Track quality 100.0 %
     Test CRC BA96D32E
     Copy CRC BA96D32E
     Copy OK

Track 10
     Filename D:Van Halen - Van Halen III10 - Primary.wav

     Pre-gap length  0:00:02.30

     Peak level 89.5 %
     Track quality 100.0 %
     Test CRC A2E82D11
     Copy CRC A2E82D11
     Copy OK

Track 11
     Filename D:Van Halen - Van Halen III11 - Ballot Or The Bullet.wav

     Peak level 96.9 %
     Track quality 100.0 %
     Test CRC 90C3077E
     Copy CRC 90C3077E
     Copy OK

Track 12
     Filename D:Van Halen - Van Halen III12 - How Many Say I.wav

     Pre-gap length  0:00:04.40

     Peak level 89.1 %
     Track quality 100.0 %
     Test CRC 501C7B77
     Copy CRC 501C7B77
     Copy OK

No errors occured


End of status report

Comments