World`s biggest lossless archive
Artist
2014 0-9 z y x w v u t s r q p o n m l k j i h g f e d c b a

Heart - Bad Animals '1987

Bad Animals
ArtistHeart
Album name Bad Animals
Date 1987
GenreRock
Play time 00:40:48
Format FLAC
Media CD
Bitrate 916 Kbps
Size 268.97 Mb
Price$2.15
Download album

For download albums, larger than 1GB, please use program "Download manager" or any other. For Windows or Mac.

Track list

1. (00:04:06) Heart - Who Will You Run To
2. (00:03:39) Heart - Alone
3. (00:03:50) Heart - There's The Girl
4. (00:04:21) Heart - I Want You So Bad
5. (00:04:32) Heart - Wait For An Answer
6. (00:04:54) Heart - Bad Animals
7. (00:04:06) Heart - You Ain't So Tough
8. (00:03:41) Heart - Strangers Of The Heart
9. (00:03:58) Heart - Easy Target
10. (00:03:41) Heart - RSVP

Archive content

Heart-Bad_Animals-1987/ - 0.00
Heart-Bad_Animals-1987/Heart - Bad Animals - Back.jpg - 1.10
Heart-Bad_Animals-1987/Heart - Bad Animals - Front.jpg - 0.58
Heart-Bad_Animals-1987/Heart - Bad Animals.cue - 0.00
Heart-Bad_Animals-1987/Heart - Bad Animals.flac - 267.29
Heart-Bad_Animals-1987/Heart - Bad Animals.log - 0.00
Show Log file:
Exact Audio Copy V0.99 prebeta 4 from 23. January 2008

Отчёт EAC об извлечении, выполненном 24. марта
2008, 17:00

Heart / Bad Animals

Дисковод: _NEC    DVD_RW ND-4550A   Adapter: 1  ID: 1

Режим чтения                 : Достоверность
Использование точного потока : Да
Отключение кэша аудио        : Да
Использование указателей C2  : Нет

Комбинированное смещение чтения/записи       
    : 0
Способность читать области Lead-in и Lead-out     :
Нет
Заполнение пропущенных сэмплов тишиной       
    : Да
Удаление блоков с тишиной в начале и конце   
    : Нет
При вычислениях CRC использовались нулевые
сэмплы : Да
Интерфейс                                         :
Установленный внешний ASPI-интерфейс

Выходной формат          : Пользовательский
кодировщик
Выбранный битрейт        : 1024 kBit/s
Качество                 : Высокий
Добавление ID3-тэга      : Да
Утилита сжатия           : C:Program FilesFLACflac.exe


TOC извлечённого CD

     Трек |   Старт  | Длительность | Начальный
сектор | Конечный сектор 
    ---------------------------------------------------------------------
       1  |  0:00.00 |    4:06.35   |           0      |      18484      
       2  |  4:06.35 |    3:38.55   |       18485      |      34889      
       3  |  7:45.15 |    3:50.05   |       34890      |      52144      
       4  | 11:35.20 |    4:21.48   |       52145      |      71767      
       5  | 15:56.68 |    4:31.37   |       71768      |      92129      
       6  | 20:28.30 |    4:54.10   |       92130      |     114189      
       7  | 25:22.40 |    4:05.45   |      114190      |     132609      
       8  | 29:28.10 |    3:41.15   |      132610      |     149199      
       9  | 33:09.25 |    3:58.35   |      149200      |     167084      
      10  | 37:07.60 |    3:39.73   |      167085      |     183582      


Характеристики диапазона извлечения и
сообщения об ошибках

Выбранный диапазон

     Имя файла C:_CDRIP!_New_RIPHeartHeart - Bad Animals.wav

     Пиковый уровень 100.0 %
     Качество диапазона 100.0 %
     CRC копии 9751D59B
     Копирование... OK

Ошибок не произошло

Конец отчёта

Comments