World`s biggest lossless archive
Artist
2014 0-9 z y x w v u t s r q p o n m l k j i h g f e d c b a

Hans Zimmer - Broken Arrow / Сломанная Стрела '1995

Bitrates:
FLAC:808 KbpsMP3:320 KbpsALAC:900 Kbps
ArtistHans Zimmer
Album name Broken Arrow / Сломанная Стрела
Date 1995
GenreSoundtrack
Play time 00:59:13
Format APE
Carrier CD
Bitrate 808 Kbps
Size 401.38 Mb
Status Checked    CUE+LOG OK
Price$3.21
Download album

For download albums, larger than 1GB, please use program "Download manager" or any other. For Windows or Mac.

Track list

1. (00:07:06) Hans Zimmer - Brothers
2. (00:04:47) Hans Zimmer - Secure
3. (00:07:34) Hans Zimmer - Stealth
4. (00:05:43) Hans Zimmer - Mine
5. (00:10:48) Hans Zimmer - Nuke
6. (00:10:56) Hans Zimmer - Greed
7. (00:04:45) Hans Zimmer - Hammerhead
8. (00:07:32) Hans Zimmer - Broken Arrow
1. (00:07:06) Hans Zimmer - Broken Arrow
1. (00:07:06) Hans Zimmer - Brothers
2. (00:04:47) Hans Zimmer - Secure
3. (00:07:34) Hans Zimmer - Stealth
4. (00:05:43) Hans Zimmer - Mine
5. (00:10:48) Hans Zimmer - Nuke
6. (00:10:56) Hans Zimmer - Greed
7. (00:04:45) Hans Zimmer - Hammerhead
8. (20:51:41) Hans Zimmer - Broken Arrow

Archive content

Covers/ - 0.00
Covers/back.jpg - 7.51
Covers/Booklet 1.jpg - 14.30
Covers/Booklet 2.jpg - 9.85
Covers/Booklet 3.jpg - 10.72
Covers/Booklet 4.jpg - 11.70
Covers/CD.jpg - 4.50
Broken Arrow.ape.cue - 0.00
Broken Arrow.cue - 0.00
Broken Arrow.log - 0.00
folder.jpg - 0.21
Broken Arrow.ape - 342.58
Show Log file:
Exact Audio Copy V0.99 prebeta 3 from 28. July 2007

EAC extraction logfile from 3. December 2007, 21:39

Hans Zimmer / Broken Arrow

Used drive  : LITE-ON DVDRW SHW-1635S   Adapter: 1  ID: 0

Read mode               : Secure
Utilize accurate stream : Yes
Defeat audio cache      : Yes
Make use of C2 pointers : No

Read offset correction                      : 6
Overread into Lead-In and Lead-Out          : No
Fill up missing offset samples with silence : Yes
Delete leading and trailing silent blocks   : No
Null samples used in CRC calculations       : Yes
Used interface                              : Installed external ASPI interface

Used output format : Internal WAV Routines
Sample format      : 44.100 Hz; 16 Bit; Stereo


TOC of the extracted CD

     Track |   Start  |  Length  | Start sector | End sector 
    ---------------------------------------------------------
        1  |  0:00.32 |  7:05.60 |        32    |    31966   
        2  |  7:06.17 |  4:47.28 |     31967    |    53519   
        3  | 11:53.45 |  7:34.35 |     53520    |    87604   
        4  | 19:28.05 |  5:43.15 |     87605    |   113344   
        5  | 25:11.20 | 10:47.72 |    113345    |   161941   
        6  | 35:59.17 | 10:56.33 |    161942    |   211174   
        7  | 46:55.50 |  4:45.47 |    211175    |   232596   
        8  | 51:41.22 |  7:32.10 |    232597    |   266506   


Range status and errors

Selected range

     Filename D:Broken Arrow.wav

     Peak level 98.2 %
     Range quality 99.9 %
     Copy CRC 04A6FE96
     Copy OK

No errors occurred

 
AccurateRip summary
 
Track  1  not present in database
Track  2  not present in database
Track  3  not present in database
Track  4  not present in database
Track  5  not present in database
Track  6  not present in database
Track  7  not present in database
Track  8  not present in database
 
None of the tracks are present in the AccurateRip database

End of status report

Comments