World`s biggest lossless archive
Artist
2014 0-9 z y x w v u t s r q p o n m l k j i h g f e d c b a

Various Artists - Celtic Myst Top 100 cd3 '2007

ArtistVarious Artists
Album name Celtic Myst Top 100 cd3
Date 2007
GenreCeltic
Play time 01:19:25
Format FLAC
Media CD
Bitrate 1042 Kbps
Size 512.19 Mb
Price$4.10
Download album

For download albums, larger than 1GB, please use program "Download manager" or any other. For Windows or Mac.

Track list

1. (00:02:56) Secret Garden - Nocturne
2. (00:02:25) Clannad - Theme From Harry's Game
3. (00:03:06) The Kelly Family - Who'll Come With Me
4. (00:04:14) Era - Avemano Orchestral
5. (00:04:24) Boyzone - She Moves Through The Fair
6. (00:04:45) Michael Flatley's Lord Of The Dance - Lord Of The Dance
7. (00:03:59) Celtic Spirit - Riverdance
8. (00:05:22) Sarah McRoann - Breaking The Waves
9. (00:03:14) Christopher Buckman - Kelly's Song
10. (00:04:49) Emerald Singers - Perfect Time
11. (00:03:44) Mary McDowell - Pilgrim
12. (00:04:15) Christa Caldicott - Sacred Isle
13. (00:03:33) Medwyn Goodall - King Arthur Two
14. (00:03:33) Martin Hayes & Dennis Cahill - Ashplant-Merry Harriers-The Hut In The Bog
15. (00:04:03) Chris De Burgh - Carry Me (Like A Fire In Your Heart)
16. (00:03:45) Celtic Spirit - The Last Crossing
17. (00:04:32) Maire Ryham - Mists Of Avalon
18. (00:03:44) Kaela Rowan - Ruighlead Mo Nighean Donn-Buachaille Dubh Fionghai
19. (00:04:21) Simon Cooper - Ride To Freedom
20. (00:02:58) Pamela Morgan - True Or False

Archive content

Celtic Myst Top 100_cd3/ - 0.00
Celtic Myst Top 100_cd3/00 - VA - Celtic Myst Top 100 (CD03).cue - 0.00
Celtic Myst Top 100_cd3/00 - VA - Celtic Myst Top 100 (CD03).log - 0.01
Celtic Myst Top 100_cd3/01 - Secret Garden - Nocturne.flac - 18.20
Celtic Myst Top 100_cd3/02 - Clannad - Theme From Harry's Game.flac - 14.12
Celtic Myst Top 100_cd3/03 - The Kelly Family - Who'll Come With Me.flac - 21.80
Celtic Myst Top 100_cd3/04 - Era - Avemano Orchestral.flac - 29.66
Celtic Myst Top 100_cd3/05 - Boyzone - She Moves Through The Fair.flac - 29.46
Celtic Myst Top 100_cd3/06 - Michael Flatley's Lord Of The Dance - Lord Of The Dance.flac - 31.16
Celtic Myst Top 100_cd3/07 - Celtic Spirit - Riverdance.flac - 28.25
Celtic Myst Top 100_cd3/08 - Sarah McRoann - Breaking The Waves.flac - 32.17
Celtic Myst Top 100_cd3/09 - Christopher Buckman - Kelly's Song.flac - 17.24
Celtic Myst Top 100_cd3/10 - Emerald Singers - Perfect Time.flac - 31.36
Celtic Myst Top 100_cd3/11 - Mary McDowell - Pilgrim.flac - 23.29
Celtic Myst Top 100_cd3/12 - Christa Caldicott - Sacred Isle.flac - 27.25
Celtic Myst Top 100_cd3/13 - Medwyn Goodall - King Arthur Two.flac - 22.87
Celtic Myst Top 100_cd3/14 - Martin Hayes & Dennis Cahill - Ashplant-Merry Harriers-The Hut In The Bog.flac - 18.53
Celtic Myst Top 100_cd3/15 - Chris De Burgh - Carry Me (Like A Fire In Your Heart).flac - 26.45
Celtic Myst Top 100_cd3/16 - Celtic Spirit - The Last Crossing.flac - 21.39
Celtic Myst Top 100_cd3/17 - Maire Ryham - Mists Of Avalon.flac - 28.45
Celtic Myst Top 100_cd3/18 - Kaela Rowan - Ruighlead Mo Nighean Donn-Buachaille Dubh Fionghai.flac - 20.20
Celtic Myst Top 100_cd3/19 - Simon Cooper - Ride To Freedom.flac - 32.64
Celtic Myst Top 100_cd3/20 - Pamela Morgan - True Or False.flac - 27.41
Celtic Myst Top 100_cd3/Celtic Myst Top 100.jpg - 0.12
Celtic Myst Top 100_cd3/scan_Back.jpg - 0.92
Celtic Myst Top 100_cd3/scan_Booklet 1.jpg - 1.18
Celtic Myst Top 100_cd3/scan_Booklet 2.jpg - 1.18
Celtic Myst Top 100_cd3/scan_Booklet 3.jpg - 1.21
Celtic Myst Top 100_cd3/scan_Booklet 4.jpg - 1.15
Celtic Myst Top 100_cd3/scan_Booklet 5.jpg - 1.21
Celtic Myst Top 100_cd3/scan_Booklet.jpg - 2.28
Celtic Myst Top 100_cd3/scan_CDBox Front.jpg - 1.37
Celtic Myst Top 100_cd3/Thumbs.db - 0.01
Show Log file:
Exact Audio Copy V0.99 prebeta 1 from 25. May 2007

EAC extraction logfile from 8. July 2007, 17:31

Various / Celtic Myst Top 100 (CD03)

Used drive  : Optiarc DVD RW AD-7530A   Adapter: 0  ID: 0

Read mode               : Secure
Utilize accurate stream : Yes
Defeat audio cache      : Yes
Make use of C2 pointers : No

Read offset correction                      : 6
Overread into Lead-In and Lead-Out          : No
Fill up missing offset samples with silence : Yes
Delete leading and trailing silent blocks   : No
Used interface                              : Native Win32 interface for Win NT
& 2000
Gap handling                                : Appended to previous track

Used output format              : User Defined Encoder
Selected bitrate                : 224 kBit/s
Quality                         : High
Add ID3 tag                     : No
Command line compressor         : C:Program FilesExact Audio CopyFlacflac.exe
Additional command line options : -8 -V -T "artist=%a" -T "title=%t" -T
"album=%g" -T "date=%y" -T "tracknumber=%n" -T "genre=%m" -T "comment=LEO
Lossless FLAC by Ripmaster TS " %s


TOC of the extracted CD

     Track |   Start  |  Length  | Start sector | End sector 
    ---------------------------------------------------------
        1  |  0:00.00 |  2:57.67 |         0    |    13341   
        2  |  2:57.67 |  2:26.74 |     13342    |    24365   
        3  |  5:24.66 |  3:07.12 |     24366    |    38402   
        4  |  8:32.03 |  4:15.20 |     38403    |    57547   
        5  | 12:47.23 |  4:25.09 |     57548    |    77431   
        6  | 17:12.32 |  4:46.05 |     77432    |    98886   
        7  | 21:58.37 |  4:00.35 |     98887    |   116921   
        8  | 25:58.72 |  5:23.17 |    116922    |   141163   
        9  | 31:22.14 |  3:15.63 |    141164    |   155851   
       10  | 34:38.02 |  4:50.53 |    155852    |   177654   
       11  | 39:28.55 |  3:45.39 |    177655    |   194568   
       12  | 43:14.19 |  4:16.64 |    194569    |   213832   
       13  | 47:31.08 |  3:34.07 |    213833    |   229889   
       14  | 51:05.15 |  3:34.31 |    229890    |   245970   
       15  | 54:39.46 |  4:04.16 |    245971    |   264286   
       16  | 58:43.62 |  3:46.01 |    264287    |   281237   
       17  | 62:29.63 |  4:33.56 |    281238    |   301768   
       18  | 67:03.44 |  3:45.36 |    301769    |   318679   
       19  | 70:49.05 |  4:22.51 |    318680    |   338380   
       20  | 75:11.56 |  4:14.32 |    338381    |   357462   


Track  1

     Filename D:5 RippedVA  (2007)  Celtic Myst Top 100 (CD03)1 - Secret
Garden - Nocturne.wav

     Pre-gap length  0:00:02.00

     Peak level 98.3 %
     Track quality 100.0 %
     Test CRC 4D963E2E
     Copy CRC 4D963E2E
     Track not present in AccurateRip database
     Copy OK

Track  2

     Filename D:5 RippedVA  (2007)  Celtic Myst Top 100 (CD03)2 - Clannad -
Theme From Harry's Game.wav

     Pre-gap length  0:00:01.00

     Peak level 98.3 %
     Track quality 100.0 %
     Test CRC CA310ABE
     Copy CRC CA310ABE
     Track not present in AccurateRip database
     Copy OK

Track  3

     Filename D:5 RippedVA  (2007)  Celtic Myst Top 100 (CD03)3 - The Kelly
Family - Who'll Come With Me.wav

     Pre-gap length  0:00:01.00

     Peak level 98.3 %
     Track quality 100.0 %
     Test CRC 5DA72DCA
     Copy CRC 5DA72DCA
     Track not present in AccurateRip database
     Copy OK

Track  4

     Filename D:5 RippedVA  (2007)  Celtic Myst Top 100 (CD03)4 - Era -
Avemano Orchestral.wav

     Pre-gap length  0:00:01.00

     Peak level 98.3 %
     Track quality 100.0 %
     Test CRC A25E8312
     Copy CRC A25E8312
     Track not present in AccurateRip database
     Copy OK

Track  5

     Filename D:5 RippedVA  (2007)  Celtic Myst Top 100 (CD03)5 - Boyzone -
She Moves Through The Fair.wav

     Pre-gap length  0:00:01.00

     Peak level 98.3 %
     Track quality 100.0 %
     Test CRC B70A3A0B
     Copy CRC B70A3A0B
     Track not present in AccurateRip database
     Copy OK

Track  6

     Filename D:5 RippedVA  (2007)  Celtic Myst Top 100 (CD03)6 - Michael
Flatley's Lord Of The Dance - Lord Of The Dance.wav

     Pre-gap length  0:00:01.00

     Peak level 98.3 %
     Track quality 100.0 %
     Test CRC 897D9E1C
     Copy CRC 897D9E1C
     Track not present in AccurateRip database
     Copy OK

Track  7

     Filename D:5 RippedVA  (2007)  Celtic Myst Top 100 (CD03)7 - Celtic
Spirit - Riverdance.wav

     Pre-gap length  0:00:01.00

     Peak level 98.3 %
     Track quality 99.9 %
     Test CRC 950C8F17
     Copy CRC 950C8F17
     Track not present in AccurateRip database
     Copy OK

Track  8

     Filename D:5 RippedVA  (2007)  Celtic Myst Top 100 (CD03)8 - Sarah
McRoann - Breaking The Waves.wav

     Pre-gap length  0:00:01.00

     Peak level 98.3 %
     Track quality 99.7 %
     Test CRC 44827A69
     Copy CRC 44827A69
     Track not present in AccurateRip database
     Copy OK

Track  9

     Filename D:5 RippedVA  (2007)  Celtic Myst Top 100 (CD03)9 - Christopher
Buckman - Kelly's Song.wav

     Pre-gap length  0:00:01.00

     Peak level 98.3 %
     Track quality 100.0 %
     Test CRC A886B522
     Copy CRC A886B522
     Track not present in AccurateRip database
     Copy OK

Track 10

     Filename D:5 RippedVA  (2007)  Celtic Myst Top 100 (CD03)10 - Emerald
Singers - Perfect Time.wav

     Pre-gap length  0:00:01.00

     Peak level 98.3 %
     Track quality 99.9 %
     Test CRC A5B7D2F1
     Copy CRC A5B7D2F1
     Track not present in AccurateRip database
     Copy OK

Track 11

     Filename D:5 RippedVA  (2007)  Celtic Myst Top 100 (CD03)11 - Mary
McDowell - Pilgrim.wav

     Pre-gap length  0:00:01.00

     Peak level 98.3 %
     Track quality 99.9 %
     Test CRC 4547DAE6
     Copy CRC 4547DAE6
     Track not present in AccurateRip database
     Copy OK

Track 12

     Filename D:5 RippedVA  (2007)  Celtic Myst Top 100 (CD03)12 - Christa
Caldicott - Sacred Isle.wav

     Pre-gap length  0:00:01.00

     Peak level 98.3 %
     Track quality 99.7 %
     Test CRC 98490E84
     Copy CRC 98490E84
     Track not present in AccurateRip database
     Copy OK

Track 13

     Filename D:5 RippedVA  (2007)  Celtic Myst Top 100 (CD03)13 - Medwyn
Goodall - King Arthur Two.wav

     Pre-gap length  0:00:01.00

     Peak level 98.3 %
     Track quality 99.8 %
     Test CRC 7FA4138D
     Copy CRC 7FA4138D
     Track not present in AccurateRip database
     Copy OK

Track 14

     Filename D:5 RippedVA  (2007)  Celtic Myst Top 100 (CD03)14 - Martin Hayes
& Dennis Cahill - Ashplant-Merry Harriers-The Hut In The Bog.wav

     Pre-gap length  0:00:01.00

     Peak level 98.3 %
     Track quality 99.9 %
     Test CRC 5279F865
     Copy CRC 5279F865
     Track not present in AccurateRip database
     Copy OK

Track 15

     Filename D:5 RippedVA  (2007)  Celtic Myst Top 100 (CD03)15 - Chris De
Burgh - Carry Me (Like A Fire In Your Heart).wav

     Pre-gap length  0:00:01.00

     Peak level 98.3 %
     Track quality 99.9 %
     Test CRC C7F1F045
     Copy CRC C7F1F045
     Track not present in AccurateRip database
     Copy OK

Track 16

     Filename D:5 RippedVA  (2007)  Celtic Myst Top 100 (CD03)16 - Celtic
Spirit - The Last Crossing.wav

     Pre-gap length  0:00:01.00

     Peak level 98.3 %
     Track quality 99.8 %
     Test CRC 114602AD
     Copy CRC 114602AD
     Track not present in AccurateRip database
     Copy OK

Track 17

     Filename D:5 RippedVA  (2007)  Celtic Myst Top 100 (CD03)17 - Maire Ryham
- Mists Of Avalon.wav

     Pre-gap length  0:00:01.00

     Peak level 98.3 %
     Track quality 99.9 %
     Test CRC D41FDD31
     Copy CRC D41FDD31
     Track not present in AccurateRip database
     Copy OK

Track 18

     Filename D:5 RippedVA  (2007)  Celtic Myst Top 100 (CD03)18 - Kaela Rowan
- Ruighlead Mo Nighean Donn-Buachaille Dubh Fionghai.wav

     Pre-gap length  0:00:01.00

     Peak level 98.3 %
     Track quality 99.8 %
     Test CRC 6D9BC8EC
     Copy CRC 6D9BC8EC
     Track not present in AccurateRip database
     Copy OK

Track 19

     Filename D:5 RippedVA  (2007)  Celtic Myst Top 100 (CD03)19 - Simon Cooper
- Ride To Freedom.wav

     Pre-gap length  0:00:01.00

     Peak level 98.3 %
     Track quality 99.9 %
     Test CRC 8E4500A0
     Copy CRC 8E4500A0
     Track not present in AccurateRip database
     Copy OK

Track 20

     Filename D:5 RippedVA  (2007)  Celtic Myst Top 100 (CD03)20 - Pamela
Morgan - True Or False.wav

     Pre-gap length  0:00:01.00

     Peak level 98.3 %
     Track quality 99.7 %
     Test CRC 0D806143
     Copy CRC 0D806143
     Track not present in AccurateRip database
     Copy OK

No errors occurred

End of status report

Comments