World`s biggest lossless archive
Artist
2014 0-9 z y x w v u t s r q p o n m l k j i h g f e d c b a

Country Joe & The Fish - I-feel-like-i'm-fixin'-to-die ' 1967

Bitrates:
FLAC:939 KbpsMP3:320 KbpsALAC:900 Kbps
ArtistCountry Joe & The Fish
Album name I-feel-like-i'm-fixin'-to-die
Date 1967
GenrePsychedelic Rock
Play time 00:45:02
Format FLAC
Carrier CD
Bitrate 939 Kbps
Size 272.00 Mb
Status Checked    CUE+LOG OK
Price$2.18
Download album

For download albums, larger than 1GB, please use program "Download manager" or any other. For Windows or Mac.

Other FLAC albums of Country Joe & The Fish

Track list

1. (00:03:43) Country Joe And The Fish - The Fish Cheer & I-Feel-Like-I'm-Fixin'-To-Die Rag
2. (00:04:05) Country Joe And The Fish - Who Am I
3. (00:05:25) Country Joe And The Fish - Pat's Song
4. (00:03:57) Country Joe And The Fish - Rock Coast Blues
5. (00:04:43) Country Joe And The Fish - Magoo
6. (00:02:36) Country Joe And The Fish - Janis
7. (00:06:39) Country Joe And The Fish - Thought Dream
8. (00:03:19) Country Joe And The Fish - Thursday
9. (00:04:29) Country Joe And The Fish - Easter Jam
10. (00:03:44) Country Joe And The Fish - Colors For Susan

Archive content

Country Joe and The Fish - I-Feel-Like-I m-Fixin-To-Die 1967/01 - The Fish Cheer & I-Feel-Like-I'm-Fixin'-To-Die Rag.flac - 25.07
Country Joe and The Fish - I-Feel-Like-I m-Fixin-To-Die 1967/02 - Who Am I.flac - 23.75
Country Joe and The Fish - I-Feel-Like-I m-Fixin-To-Die 1967/03 - Pat's Song.flac - 33.93
Country Joe and The Fish - I-Feel-Like-I m-Fixin-To-Die 1967/04 - Rock Coast Blues.flac - 23.02
Country Joe and The Fish - I-Feel-Like-I m-Fixin-To-Die 1967/05 - Magoo.flac - 26.31
Country Joe and The Fish - I-Feel-Like-I m-Fixin-To-Die 1967/06 - Janis.flac - 16.37
Country Joe and The Fish - I-Feel-Like-I m-Fixin-To-Die 1967/07 - Thought Dream.flac - 42.66
Country Joe and The Fish - I-Feel-Like-I m-Fixin-To-Die 1967/08 - Thursday.flac - 20.17
Country Joe and The Fish - I-Feel-Like-I m-Fixin-To-Die 1967/09 - Easter Jam.flac - 30.29
Country Joe and The Fish - I-Feel-Like-I m-Fixin-To-Die 1967/10 - Colors For Susan.flac - 30.46
Country Joe and The Fish - I-Feel-Like-I m-Fixin-To-Die 1967/cjfish.jpg - 0.03
Country Joe and The Fish - I-Feel-Like-I m-Fixin-To-Die 1967/Country Joe And The Fish - I-Feel-Like-I m-Fixin-To-Die .log - 0.00
Country Joe and The Fish - I-Feel-Like-I m-Fixin-To-Die 1967/Country Joe And The Fish - I-Feel-Like-I m-Fixin-To-Die .m3u - 0.00
Country Joe and The Fish - I-Feel-Like-I m-Fixin-To-Die 1967/Country Joe And The Fish - I-Feel-Like-I m-Fixin-To-Die.cue - 0.00
Country Joe and The Fish - I-Feel-Like-I m-Fixin-To-Die 1967/ - 0.00
Show Log file:
Exact Audio Copy V0.99 prebeta 4 from 23. January 2008

EAC extraction logfile from 11. May 2008, 15:25

Country Joe And The Fish / I-Feel-Like-I'm-Fixin'-To-Die 

Used drive  : LITE-ON DVDRW LDW-811S   Adapter: 2  ID: 0

Read mode               : Secure
Utilize accurate stream : Yes
Defeat audio cache      : Yes
Make use of C2 pointers : No

Read offset correction                      : 12
Overread into Lead-In and Lead-Out          : No
Fill up missing offset samples with silence : Yes
Delete leading and trailing silent blocks   : No
Null samples used in CRC calculations       : No
Used interface                              : Native Win32 interface for Win NT
& 2000
Gap handling                                : Not detected, thus appended to
previous track

Used output format              : User Defined Encoder
Selected bitrate                : 768 kBit/s
Quality                         : High
Add ID3 tag                     : No
Command line compressor         : C:Program FilesExact Audio CopyFLACFLAC.EXE
Additional command line options : -6 -V -T "ARTIST=%a" -T "TITLE=%t" -T
"ALBUM=%g" -T "DATE=%y" -T "TRACKNUMBER=%n" -T "GENRE=%m" -T "COMMENT=%e" %s -o
%d


TOC of the extracted CD

     Track |   Start  |  Length  | Start sector | End sector 
    ---------------------------------------------------------
        1  |  0:00.00 |  3:43.72 |         0    |    16796   
        2  |  3:43.72 |  4:05.50 |     16797    |    35221   
        3  |  7:49.47 |  5:25.33 |     35222    |    59629   
        4  | 13:15.05 |  3:57.40 |     59630    |    77444   
        5  | 17:12.45 |  4:43.70 |     77445    |    98739   
        6  | 21:56.40 |  2:36.12 |     98740    |   110451   
        7  | 24:32.52 |  6:39.13 |    110452    |   140389   
        8  | 31:11.65 |  3:19.50 |    140390    |   155364   
        9  | 34:31.40 |  4:30.45 |    155365    |   175659   
       10  | 39:02.10 |  5:59.15 |    175660    |   202599   


Track  1

     Filename C:Documents and SettingsOwnerMy DocumentsCountry Joe - I Feel Like
I'm Fixin' To Die

Comments