World`s biggest lossless archive
Artist
2014 0-9 z y x w v u t s r q p o n m l k j i h g f e d c b a

Iasca - Official Sound Quality Reference Cd 2005 '2005

Official Sound Quality Reference Cd 2005
ArtistIasca
Album name Official Sound Quality Reference Cd 2005
Date 2005
GenreOther
Play time 01:03:54
Format FLAC
Media CD
Bitrate 655 Kbps
Size 299.39 Mb
Price$2.40
Download album

For download albums, larger than 1GB, please use program "Download manager" or any other. For Windows or Mac.

Track list

1. (00:03:51) IASCA - Introduction 'Ascent'
2. (00:00:30) IASCA - Left - Right Channel Verification
3. (00:00:23) IASCA - Phase Verfication
4. (00:00:18) IASCA - Instructions For Tonal Accuracy/Spectral Balance
5. (00:01:20) IASCA - Tonal Accuracy/Spectral Balance Evalution #1: 'Throne Room & Title Ending'
6. (00:01:39) IASCA - Tonal Accuracy/Spectral Balance Evalution #2: 'Superman - The Plant Krypton'
7. (00:01:35) IASCA - Tonal Accuracy/Spectral Balance Evalution #3: 'Gavotte in D Minor'
8. (00:00:24) IASCA - Instructions For Staging Evaluation
9. (00:01:48) IASCA - Staging Evaluation #1: 'Theme From Pink Panther'
10. (00:01:39) IASCA - Staging Evaluation #2: 'Camarillo'
11. (00:01:39) IASCA - Staging Evaluation #3: 'Fortune, Empress of the World'
12. (00:00:47) IASCA - Staging Evaluation #4: Technial Track 'Left, Center, Right Narratives'
13. (00:00:47) IASCA - Instructions for Imaging Evaluation
13. (00:00:34) IASCA - Instructions for Imaging Evaluation
14. (00:01:50) IASCA - Imaging Evaluation #1: 'Blues Stay Away From Me'
15. (00:01:43) IASCA - Imaging Evaluation #2: 'I Will Find You There (Jam'
16. (00:01:53) IASCA - Imaging Evaluation #3: 'Too Close'
17. (00:00:24) IASCA - Imaging Evaluation #4: Technical track 'Seven Drum Beats'
18. (00:00:24) IASCA - Explananation of Linearity Evaluation
18. (00:00:20) IASCA - Explananation of Linearity Evaluation
19. (00:00:22) IASCA - Level Setting Instructions for Track 20
20. (00:00:22) IASCA - Level Setting Track for Linearity Evaluation
20. (00:00:18) IASCA - Level Setting Track for Linearity Evaluation
21. (00:00:18) IASCA - Low Volume Linearity Evaluation: (74dB average / 81dB peak SPL)
21. (00:00:52) IASCA - Low Volume Linearity Evaluation: (74dB average / 81dB peak SPL)
22. (00:00:52) IASCA - Moderate Volume Linearity Evaluation: (86dB average / 93dB peak SPL)
23. (00:00:51) IASCA - High Volume Linearity Evaluation: (98dB average / 105dB peak SPL)
24. (00:00:28) IASCA - Noise Evaluation Instructions:
25. (00:01:05) IASCA - Noise Evaluation: 'A la Vaise'
26. (00:00:17) IASCA - 'WARNING !!! REDUCE VOLUME'
27. (00:00:39) IASCA - Zero Bits: Total Silence
28. (00:02:05) IASCA - RTA TEST TRACK: Stereo Pink Noise (Uncorrelated)
29. (00:02:05) IASCA - UNLIMITED SPL INSTRUCTIONS
29. (00:00:06) IASCA - UNLIMITED SPL INSTRUCTIONS
30. (00:00:40) IASCA - SPL Track: 'Toccata' (Don Dorsey - Beginning)
31. (00:00:40) IASCA - SPL Track: 'Toccata' (Don Dorsey - Ending)
31. (00:00:41) IASCA - SPL Track: 'Toccata' (Don Dorsey - Ending)
32. (00:00:41) IASCA - Sine Sweep - (20 Hz to 55 Hz)
32. (00:00:37) IASCA - Sine Sweep - (20 Hz to 55 Hz)
33. (00:00:37) IASCA - Sine Sweep - (30 Hz to 65 Hz)
34. (00:00:37) IASCA - Sine Sweep - (40 Hz to 75 Hz)
35. (00:03:14) IASCA - Sine Sweep Test Tone (Sweep Stepped from 1 to 200 Hz rising in freq. @ 1 Hz P...
36. (00:00:08) IASCA - 'Thank you for competing in IASCA'
37. (00:04:41) IASCA - John Williams: 'Throme Room & Title Ending'
38. (00:03:57) IASCA - Harry James: 'Blues Stay Away From Me'
39. (00:06:49) IASCA - Michael Ruff: 'I Will Find You There'
40. (00:04:42) IASCA - Clair Mario: 'Too Close'
41. (20:58:35) IASCA - Harry James: 'Sandford & Son'
42. (21:03:54) IASCA - Don Dorsey: 'Toccata'

Archive content

IASCA - Official Sound Quality Reference CD 2005.flac - 299.70
IASCA - Инструкция по настройке.txt - 0.02
new-sq-cd-2005sm.jpg - 0.04
IASCA - Official Sound Quality Reference CD 2005.cue - 0.01
Official Sound Quality Reference CD 2005.log - 0.00
Show Log file:
Exact Audio Copy V0.99 prebeta 3 from 28. July 2007

Отчёт EAC об извлечении, выполненном 1. июня
2008, 15:03

IASCA / Official Sound Quality Reference CD 2005

Дисковод: PIONEER DVD-RW  DVR-111D   Adapter: 5  ID: 0

Режим чтения                 : Достоверность
Использование точного потока : Да
Отключение кэша аудио        : Да
Использование указателей C2  : Нет

Коррекция смещения при чтении                     :
48
Способность читать области Lead-in и Lead-out     :
Нет
Заполнение пропущенных сэмплов тишиной       
    : Да
Удаление блоков с тишиной в начале и конце   
    : Нет
При вычислениях CRC использовались нулевые
сэмплы : Нет
Интерфейс                                         :
Установленный внешний ASPI-интерфейс

Выходной формат : Внутренние WAV-операции
Формат сэмплов  : 44.100 Гц; 16 бит; стерео


TOC извлечённого CD

     Трек |   Старт  | Длительность | Начальный
сектор | Конечный сектор 
    ---------------------------------------------------------------------
       1  |  0:00.00 |    3:53.52   |           0      |      17526      
       2  |  3:53.52 |    0:31.58   |       17527      |      19909      
       3  |  4:25.35 |    0:25.06   |       19910      |      21790      
       4  |  4:50.41 |    0:20.15   |       21791      |      23305      
       5  |  5:10.56 |    1:21.72   |       23306      |      29452      
       6  |  6:32.53 |    1:40.30   |       29453      |      36982      
       7  |  8:13.08 |    1:37.47   |       36983      |      44304      
       8  |  9:50.55 |    0:26.00   |       44305      |      46254      
       9  | 10:16.55 |    1:49.21   |       46255      |      54450      
      10  | 12:06.01 |    1:41.45   |       54451      |      62070      
      11  | 13:47.46 |    1:40.42   |       62071      |      69612      
      12  | 15:28.13 |    0:48.62   |       69613      |      73274      
      13  | 16:17.00 |    0:36.02   |       73275      |      75976      
      14  | 16:53.02 |    1:52.47   |       75977      |      84423      
      15  | 18:45.49 |    1:45.05   |       84424      |      92303      
      16  | 20:30.54 |    1:54.24   |       92304      |     100877      
      17  | 22:25.03 |    0:26.57   |      100878      |     102884      
      18  | 22:51.60 |    0:21.62   |      102885      |     104521      
      19  | 23:13.47 |    0:23.60   |      104522      |     106306      
      20  | 23:37.32 |    0:20.01   |      106307      |     107807      
      21  | 23:57.33 |    0:53.63   |      107808      |     111845      
      22  | 24:51.21 |    0:53.63   |      111846      |     115883      
      23  | 25:45.09 |    0:53.63   |      115884      |     119921      
      24  | 26:38.72 |    0:29.63   |      119922      |     122159      
      25  | 27:08.60 |    1:06.43   |      122160      |     127152      
      26  | 28:15.28 |    0:19.35   |      127153      |     128612      
      27  | 28:34.63 |    0:40.24   |      128613      |     131636      
      28  | 29:15.12 |    2:07.09   |      131637      |     141170      
      29  | 31:22.21 |    0:08.10   |      141171      |     141780      
      30  | 31:30.31 |    0:41.74   |      141781      |     144929      
      31  | 32:12.30 |    0:42.64   |      144930      |     148143      
      32  | 32:55.19 |    0:39.12   |      148144      |     151080      
      33  | 33:34.31 |    0:39.09   |      151081      |     154014      
      34  | 34:13.40 |    0:39.09   |      154015      |     156948      
      35  | 34:52.49 |    3:15.73   |      156949      |     171646      
      36  | 38:08.47 |    0:10.15   |      171647      |     172411      
      37  | 38:18.62 |    4:42.37   |      172412      |     193598      
      38  | 43:01.24 |    3:59.02   |      193599      |     211525      
      39  | 47:00.26 |    6:50.53   |      211526      |     242328      
      40  | 53:51.04 |    4:44.13   |      242329      |     263641      
      41  | 58:35.17 |    2:10.09   |      263642      |     273400      
      42  | 60:45.26 |    3:08.57   |      273401      |     287557      


Характеристики диапазона извлечения и
сообщения об ошибках

Выбранный диапазон

     Имя файла F:DownloadsIASCA-official sound Quality Reference CDIASCA
- Official Sound Quality Reference CD 2005.wav

     Подозрительная позиция 1:02:33

     Пиковый уровень 100.0 %
     Качество диапазона 99.9 %
     CRC копии 72C4600C
     Копирование завершено


Comments

  • Type of view:
  • Tile
  • List