World`s biggest lossless archive
Artist
2014 0-9 z y x w v u t s r q p o n m l k j i h g f e d c b a

Tripswitch - Circuit Breaker - Rewired (CD2) '2007

Bitrates:
FLAC:834 KbpsMP3:320 KbpsALAC:900 Kbps
ArtistTripswitch
Album name Circuit Breaker - Rewired (CD2)
Date 2007
GenreElectronic
Play time 01:11:33
Format FLAC
Media CD
Bitrate 834 Kbps
Size 427.10 Mb
Status Checked    CUE+LOG OK
Price$3.42
Download album

For download albums, larger than 1GB, please use program "Download manager" or any other. For Windows or Mac.

Track list

1. (00:09:10) Tripswitch - Exiled (Mantra Mix)
2. (00:07:06) Tripswitch - Shamanic Tea
3. (00:08:40) Tripswitch - Indigo
4. (00:06:39) Tripswitch - Roll Your Own
5. (00:02:38) Tripswitch - Tachyon
6. (00:06:04) Tripswitch - Cartwheel
7. (00:08:06) Tripswitch - Silver (Robot Baby mix)
8. (00:05:33) Tripswitch - Tomahna
9. (20:53:56) Tripswitch - Viscous
10. (21:11:33) Tripswitch - Deer Park

Archive content

Tripswitch - Circuit Breaker - Rewired (CD2)/ - 0.00
Tripswitch - Circuit Breaker - Rewired (CD2)/Thumbs.db - 0.01
Tripswitch - Circuit Breaker - Rewired (CD2)/Tripswitch - Circuit Breaker - Rewired (CD2).cue - 0.00
Tripswitch - Circuit Breaker - Rewired (CD2)/Tripswitch - Circuit Breaker - Rewired (CD2).flac - 427.16
Tripswitch - Circuit Breaker - Rewired (CD2)/Tripswitch - Circuit Breaker - Rewired (CD2).log - 0.00
Tripswitch - Circuit Breaker - Rewired (CD2)/Tripswitch - Circuit Breaker - Rewired.jpeg - 0.07
Show Log file:
Exact Audio Copy V0.99 prebeta 3 from 28. July 2007

EAC extraction logfile from 5. July 2008, 1:42

Tripswitch / Circuit Breaker - Rewired (CD2)

Used drive  : HL-DT-STDVDRRW GSA-2166D   Adapter: 1  ID: 1

Read mode               : Secure
Utilize accurate stream : Yes
Defeat audio cache      : Yes
Make use of C2 pointers : No

Read offset correction                      : 102
Overread into Lead-In and Lead-Out          : No
Fill up missing offset samples with silence : Yes
Delete leading and trailing silent blocks   : No
Null samples used in CRC calculations       : No
Used interface                              : Installed external ASPI interface

Used output format              : User Defined Encoder
Selected bitrate                : 896 kBit/s
Quality                         : High
Add ID3 tag                     : Yes
Command line compressor         : C:Program FilesExact Audio CopyFLACFLAC.EXE
Additional command line options : -T "artist=%a" -T "title=%t" -T "album=%g" -T
"date=%y" -T "tracknumber=%n" -T "genre=%m" %s


TOC of the extracted CD

     Track |   Start  |  Length  | Start sector | End sector 
    ---------------------------------------------------------
        1  |  0:00.00 |  9:10.18 |         0    |    41267   
        2  |  9:10.18 |  7:06.18 |     41268    |    73235   
        3  | 16:16.36 |  8:39.56 |     73236    |   112216   
        4  | 24:56.17 |  6:39.43 |    112217    |   142184   
        5  | 31:35.60 |  2:37.25 |    142185    |   153984   
        6  | 34:13.10 |  6:04.46 |    153985    |   181330   
        7  | 40:17.56 |  8:06.00 |    181331    |   217780   
        8  | 48:23.56 |  5:33.14 |    217781    |   242769   
        9  | 53:56.70 |  7:14.09 |    242770    |   275328   
       10  | 61:11.04 | 10:21.51 |    275329    |   321954   


Range status and errors

Selected range

     Filename H:Tripswitch - Circuit Breaker - Rewired (CD2).wav

     Peak level 98.8 %
     Range quality 100.0 %
     Copy CRC 020A8BE8
     Copy OK

No errors occurred

End of status report

Comments