World`s biggest lossless archive
Artist
2014 0-9 z y x w v u t s r q p o n m l k j i h g f e d c b a

J. Geils Band, The - Freeze Frame '1981

ArtistJ. Geils Band, The
Album name Freeze Frame
Date 1981
GenreRock
Play time 00:41:02
Format FLAC
Media CD
Bitrate 947 Kbps
Size 272.26 Mb
Price$2.18
Download album

For download albums, larger than 1GB, please use program "Download manager" or any other. For Windows or Mac.

Track list

1. (00:03:57) The J. Geils Band - Freeze Frame
2. (00:04:57) The J. Geils Band - Rage In The Cage
3. (00:03:37) The J. Geils Band - Centerfold
4. (00:04:45) The J. Geils Band - Do You Remember When
5. (00:04:44) The J. Geils Band - Insane, Insane Again
6. (00:04:59) The J. Geils Band - Flamethrower
7. (00:06:05) The J. Geils Band - River Blindness
8. (00:04:52) The J. Geils Band - Angel In Blue
9. (00:33:58) The J. Geils Band - Piss On The Wall

Archive content

J. Geils Band - Freeze-frame 1981/01- Freeze Frame.flac - 26.16
J. Geils Band - Freeze-frame 1981/02- Rage In The Cage.flac - 32.81
J. Geils Band - Freeze-frame 1981/03- Centerfold.flac - 23.64
J. Geils Band - Freeze-frame 1981/04- Do You Remember When.flac - 30.96
J. Geils Band - Freeze-frame 1981/05- Insane, Insane Again.flac - 31.85
J. Geils Band - Freeze-frame 1981/06- Flamethrower.flac - 33.71
J. Geils Band - Freeze-frame 1981/07- River Blindness.flac - 39.04
J. Geils Band - Freeze-frame 1981/08- Angel In Blue.flac - 32.17
J. Geils Band - Freeze-frame 1981/09- Piss On The Wall.flac - 19.78
J. Geils Band - Freeze-frame 1981/Freeze Frame.cue - 0.00
J. Geils Band - Freeze-frame 1981/JGB back.JPG - 1.02
J. Geils Band - Freeze-frame 1981/JGB front.JPG - 1.16
J. Geils Band - Freeze-frame 1981/The J. Geils Band - Freeze Frame.log - 0.00
J. Geils Band - Freeze-frame 1981/The J. Geils Band - Freeze Frame.m3u - 0.00
J. Geils Band - Freeze-frame 1981/ - 0.00
Show Log file:
Exact Audio Copy V0.99 prebeta 1 from 25. May 2007

EAC extraction logfile from 10. August 2008, 18:46

The J. Geils Band / Freeze Frame

Used drive  : IDE-DVD DROM6216   Adapter: 4  ID: 1

Read mode               : Secure
Utilize accurate stream : Yes
Defeat audio cache      : Yes
Make use of C2 pointers : No

Read offset correction                      : 738
Overread into Lead-In and Lead-Out          : No
Fill up missing offset samples with silence : Yes
Delete leading and trailing silent blocks   : No
Used interface                              : Native Win32 interface for Win NT
& 2000
Gap handling                                : Appended to previous track

Used output format              : User Defined Encoder
Selected bitrate                : 128 kBit/s
Quality                         : High
Add ID3 tag                     : No
Command line compressor         : C:Program FilesExact Audio CopyFLACFLAC.EXE
Additional command line options : -6 -V -T "ARTIST=%a" -T "TITLE=%t" -T
"ALBUM=%g" -T "DATE=%y" -T "TRACKNUMBER=%n" -T "GENRE=%m" -T "COMMENT=%e" %s -o
%d


TOC of the extracted CD

     Track |   Start  |  Length  | Start sector | End sector 
    ---------------------------------------------------------
        1  |  0:00.00 |  3:57.42 |         0    |    17816   
        2  |  3:57.42 |  4:57.05 |     17817    |    40096   
        3  |  8:54.47 |  3:36.40 |     40097    |    56336   
        4  | 12:31.12 |  4:45.60 |     56337    |    77771   
        5  | 17:16.72 |  4:43.63 |     77772    |    99059   
        6  | 22:00.60 |  4:58.40 |     99060    |   121449   
        7  | 26:59.25 |  6:05.45 |    121450    |   148869   
        8  | 33:04.70 |  4:51.62 |    148870    |   170756   
        9  | 37:56.57 |  3:03.28 |    170757    |   184509   


Track  1

     Filename C:My MusicJ. Geils Band - Freeze-frame

Comments