World`s biggest lossless archive
Artist
2014 0-9 z y x w v u t s r q p o n m l k j i h g f e d c b a

Amy Macdonald - This Is The Life '2007

This Is The Life
ArtistAmy Macdonald
Album name This Is The Life
Date 2007
GenreFolk/Rock
Play time 00:39:05
Format FLAC
Media CD
Bitrate 976 Kbps
Size 273.16 Mb
Price$2.19
Download album

For download albums, larger than 1GB, please use program "Download manager" or any other. For Windows or Mac.

Track list

1. (00:03:34) Amy MacDonald - Mr Rock & Roll
2. (00:03:04) Amy MacDonald - This Is The Life
3. (00:03:29) Amy MacDonald - Poison Prince
4. (00:03:58) Amy MacDonald - Youth Of Today
5. (00:03:48) Amy MacDonald - Run
6. (00:04:04) Amy MacDonald - Let's Start A Band
7. (00:03:55) Amy MacDonald - Barrowland Ballroom
8. (00:04:05) Amy MacDonald - L.A.
9. (00:03:45) Amy MacDonald - A Wish For Something More
10. (00:05:08) Amy MacDonald - Footballer's Wife

Archive content

Amy MacDonald - This Is The Life [FLAC-EAC-CUE]/ - 0.00
Amy MacDonald - This Is The Life [FLAC-EAC-CUE]/51sEKiH+H2L._SS400_.jpg - 0.04
Amy MacDonald - This Is The Life [FLAC-EAC-CUE]/Amy MacDonald - This Is The Life.cue - 0.00
Amy MacDonald - This Is The Life [FLAC-EAC-CUE]/Amy MacDonald - This Is The Life.flac - 273.08
Amy MacDonald - This Is The Life [FLAC-EAC-CUE]/Amy MacDonald - This Is The Life.log - 0.00
Show Log file:
Exact Audio Copy V0.99 prebeta 3 from 28. July 2007

EAC extraction logfile from 12. July 2008, 20:16

Amy MacDonald / This Is The Life

Used drive  : HL-DT-STDVDRAM GMA-4082N   Adapter: 0  ID: 0

Read mode               : Secure
Utilize accurate stream : Yes
Defeat audio cache      : No
Make use of C2 pointers : Yes

Read offset correction                      : 667
Overread into Lead-In and Lead-Out          : No
Fill up missing offset samples with silence : Yes
Delete leading and trailing silent blocks   : No
Null samples used in CRC calculations       : No
Used interface                              : Native Win32 interface for Win NT
& 2000

Used output format : Internal WAV Routines
Sample format      : 44.100 Hz; 16 Bit; Stereo


TOC of the extracted CD

     Track |   Start  |  Length  | Start sector | End sector 
    ---------------------------------------------------------
        1  |  0:00.00 |  3:35.33 |         0    |    16157   
        2  |  3:35.33 |  3:05.73 |     16158    |    30105   
        3  |  6:41.31 |  3:28.46 |     30106    |    45751   
        4  | 10:10.02 |  4:00.13 |     45752    |    63764   
        5  | 14:10.15 |  3:50.68 |     63765    |    81082   
        6  | 18:01.08 |  4:05.01 |     81083    |    99458   
        7  | 22:06.09 |  3:58.43 |     99459    |   117351   
        8  | 26:04.52 |  4:06.49 |    117352    |   135850   
        9  | 30:11.26 |  3:46.15 |    135851    |   152815   
       10  | 33:57.41 |  5:07.13 |    152816    |   175853   


Range status and errors

Selected range

     Filename D:Images (FLAC-EAC-CUE)Amy MacDonald - This Is The LifeAmy
MacDonald - This Is The Life.wav

     Peak level 100.0 %
     Range quality 100.0 %
     Copy CRC 108DAB87
     Copy OK

No errors occurred

 
AccurateRip summary
 
Track  1  accurately ripped (confidence 14)  [0FA8F40B]
Track  2  accurately ripped (confidence 13)  [AE5D2DA8]
Track  3  accurately ripped (confidence 14)  [68B4D1EA]
Track  4  accurately ripped (confidence 14)  [6E1D8553]
Track  5  accurately ripped (confidence 14)  [9E68C9E1]
Track  6  accurately ripped (confidence 13)  [CD5CAA5C]
Track  7  accurately ripped (confidence 14)  [59C5E123]
Track  8  accurately ripped (confidence 14)  [66A07A74]
Track  9  accurately ripped (confidence 14)  [6A9139E4]
Track 10  accurately ripped (confidence 14)  [DD926B2A]
 
All tracks accurately ripped

End of status report

Comments