World`s biggest lossless archive
Artist
2014 0-9 z y x w v u t s r q p o n m l k j i h g f e d c b a

Pete Haycock Band, The - Livin' It '1992

ArtistPete Haycock Band, The
Album name Livin' It
Date 1992
GenreInstrumental Rock
Play time 01:03:41
Format APE
Media CD
Bitrate 904 Kbps
Size 364.84 Mb
Price$2.92
Download album

For download albums, larger than 1GB, please use program "Download manager" or any other. For Windows or Mac.

Track list

1. (00:03:28) The Pete Haycock Band - Liberty
2. (00:11:09) The Pete Haycock Band - So Many Roads
3. (00:06:46) The Pete Haycock Band - Communication
4. (00:06:47) The Pete Haycock Band - Medley
5. (00:13:08) The Pete Haycock Band - The Thrill Is Gone
6. (00:10:39) The Pete Haycock Band - Lucienne
7. (00:05:58) The Pete Haycock Band - Dr. Brown, I Presume
8. (00:03:30) The Pete Haycock Band - Blackjack And Me

Archive content

Art/ - 0.00
Art/art-1.jpg - 1.48
Art/art-2.jpg - 0.63
Art/back.jpg - 0.82
Art/CD.jpg - 0.34
Art/credits.jpg - 0.20
Art/front.jpg - 0.42
01. Liberty.flac - 22.62
02. So Many Roads.flac - 59.60
03. Communication.flac - 42.43
04. Medley.flac - 29.92
05. The Thrill Is Gone.flac - 75.25
06. Lucienne.flac - 58.93
07. Dr. Brown, I Presume.flac - 37.19
08. Blackjack And Me.flac - 35.10
About.txt - 0.01
front.jpg - 0.05
Livin' it.cue - 0.00
The Pete Haycock Band - Livin' it.log - 0.00
The Pete Haycock Band - Livin' it.m3u - 0.00
Show Log file:
Exact Audio Copy V0.99 prebeta 4 from 23. January 2008

EAC extraction logfile from 6. December 2008, 20:19

The Pete Haycock Band / Livin' it

Used drive  : HL-DT-STDVDRAM GH20NS10   Adapter: 3  ID: 1

Read mode               : Secure
Utilize accurate stream : Yes
Defeat audio cache      : Yes
Make use of C2 pointers : No

Read offset correction                      : 667
Overread into Lead-In and Lead-Out          : No
Fill up missing offset samples with silence : Yes
Delete leading and trailing silent blocks   : No
Null samples used in CRC calculations       : Yes
Used interface                              : Native Win32 interface for Win NT
& 2000
Gap handling                                : Appended to previous track

Used output format              : User Defined Encoder
Selected bitrate                : 768 kBit/s
Quality                         : High
Add ID3 tag                     : Yes
Command line compressor         : C:Program FilesExact Audio CopyFLACFLAC.EXE
Additional command line options : -6 -V -T "ARTIST=%a" -T "TITLE=%t" -T
"ALBUM=%g" -T "DATE=%y" -T "TRACKNUMBER=%n" -T "GENRE=%m" -T "COMMENT=%e" %s -o
%d
Use compression offset          : 0


TOC of the extracted CD

     Track |   Start  |  Length  | Start sector | End sector 
    ---------------------------------------------------------
        1  |  0:00.00 |  3:29.50 |         0    |    15724   
        2  |  3:29.50 | 11:11.25 |     15725    |    66074   
        3  | 14:41.00 |  6:47.50 |     66075    |    96649   
        4  | 21:28.50 |  6:48.50 |     96650    |   127299   
        5  | 28:17.25 | 13:09.50 |    127300    |   186524   
        6  | 41:27.00 | 10:41.37 |    186525    |   234636   
        7  | 52:08.37 |  6:00.38 |    234637    |   261674   
        8  | 58:09.00 |  5:30.27 |    261675    |   286451   


Track  1

     Filename E:TempThe Pete Haycock BandLivin' it1. Liberty.wav

     Pre-gap length  0:00:02.00

     Peak level 96.7 %
     Track quality 100.0 %
     Copy CRC FE2314BD
     Track not present in AccurateRip database
     Copy OK

Track  2

     Filename E:TempThe Pete Haycock BandLivin' it2. So Many Roads.wav

     Pre-gap length  0:00:01.49

     Peak level 97.4 %
     Track quality 100.0 %
     Copy CRC DAA6FF5A
     Track not present in AccurateRip database
     Copy OK

Track  3

     Filename E:TempThe Pete Haycock BandLivin' it3. Communication.wav

     Pre-gap length  0:00:01.31

     Peak level 97.3 %
     Track quality 100.0 %
     Copy CRC D2325E82
     Track not present in AccurateRip database
     Copy OK

Track  4

     Filename E:TempThe Pete Haycock BandLivin' it4. Medley.wav

     Pre-gap length  0:00:01.49

     Peak level 98.7 %
     Track quality 100.0 %
     Copy CRC 5DC63038
     Track not present in AccurateRip database
     Copy OK

Track  5

     Filename E:TempThe Pete Haycock BandLivin' it5. The Thrill Is Gone.wav

     Pre-gap length  0:00:01.44

     Peak level 97.4 %
     Track quality 100.0 %
     Copy CRC BB678D00
     Track not present in AccurateRip database
     Copy OK

Track  6

     Filename E:TempThe Pete Haycock BandLivin' it6. Lucienne.wav

     Pre-gap length  0:00:01.36

     Peak level 97.6 %
     Track quality 100.0 %
     Copy CRC 4A225E5C
     Track not present in AccurateRip database
     Copy OK

Track  7

     Filename E:TempThe Pete Haycock BandLivin' it7. Dr. Brown, I Presume.wav

     Pre-gap length  0:00:01.46

     Peak level 96.6 %
     Track quality 100.0 %
     Copy CRC 8763381F
     Track not present in AccurateRip database
     Copy OK

Track  8

     Filename E:TempThe Pete Haycock BandLivin' it8. Blackjack And Me.wav

     Pre-gap length  0:00:01.41

     Peak level 97.4 %
     Track quality 100.0 %
     Copy CRC 87771452
     Track not present in AccurateRip database
     Copy OK


None of the tracks are present in the AccurateRip database

No errors occurred

End of status report

Comments