World`s biggest lossless archive
Artist
2014 0-9 z y x w v u t s r q p o n m l k j i h g f e d c b a

J.J. Cale - Roll On '2009

ArtistJ.J. Cale
Album name Roll On
Date 2009
GenreRock
Play time 00:40:38
Format FLAC
Media CD
Bitrate 1020 Kbps
Size 252.42 Mb
Price$2.02
Download album

For download albums, larger than 1GB, please use program "Download manager" or any other. For Windows or Mac.

Track list

1. (00:00:00) - Who Knew
2. (00:00:00) - Former Me
3. (00:00:00) - Where The Sun Don't Shine
4. (00:00:00) - Down To Memphis
5. (00:00:00) - Strange Days
6. (00:00:00) - Cherry Street
7. (00:03:20) - Fonda-Lina
8. (00:00:00) - Leaving In The Morning
9. (00:00:00) - Oh Mary
10. (00:03:55) - Old Friend
11. (00:00:00) - Roll On
12. (00:03:31) - Bring Down The Curtain

Archive content

01 - Who Knew.flac - 21.42
02 - Former Me.flac - 13.72
03 - Where The Sun Don't Shine.flac - 16.90
04 - Down To Memphis.flac - 20.05
05 - Strange Days.flac - 21.03
06 - Cherry Street.flac - 22.57
07 - Fonda-Lina.flac - 23.52
08 - Leaving In The Morning.flac - 14.40
09 - Oh Mary.flac - 26.10
10 - Old Friend.flac - 23.39
11 - Roll On.flac - 32.52
12 - Bring Down The Curtain.flac - 16.79
About.txt - 0.00
Front.jpg - 0.04
Roll On.cue - 0.00
Roll On.log - 0.01
Roll On.m3u - 0.00
Show Log file:
X Lossless Decoder version 20090215 (100.1)

XLD extraction logfile from 2009-02-24 09:51:38 -0500

J.J. Cale / Roll On

Used drive : MATSHITA CD-RW  CW-8124 (revision DB0D)

Use cdparanoia mode     : YES (CDParanoia III 10.2 engine)
Disable audio cache     : OK for the drive with cache less than 2750KB
Make use of C2 pointers : NO
Read offset correction  : 102
Max retry count         : 100

TOC of the extracted CD
     Track |   Start  |  Length  | Start sector | End sector 
    ---------------------------------------------------------
        1  | 00:00:00 | 03:30:48 |         0    |    15797   
        2  | 03:30:48 | 02:48:64 |     15798    |    28461   
        3  | 06:19:37 | 03:07:40 |     28462    |    42526   
        4  | 09:27:02 | 03:05:37 |     42527    |    56438   
        5  | 12:32:39 | 03:10:74 |     56439    |    70762   
        6  | 15:43:38 | 03:44:09 |     70763    |    87571   
        7  | 19:27:47 | 03:21:70 |     87572    |   102716   
        8  | 22:49:42 | 02:37:39 |    102717    |   114530   
        9  | 25:27:06 | 03:34:38 |    114531    |   130618   
       10  | 29:01:44 | 03:56:49 |    130619    |   148367   
       11  | 32:58:18 | 04:43:43 |    148368    |   169635   
       12  | 37:41:61 | 02:54:23 |    169636    |   182708   

Track 01
    Filename : /Volumes/MHD2/Music Part Deux/flac/01 - Who Knew.flac

    CRC32 hash (test run)  : FADE5A6B
    CRC32 hash             : FADE5A6B
    CRC32 hash (skip zero) : DB093300
    AccurateRip signature  : 76AB61E2
        ->Track not present in AccurateRip database.
    Statistics
        Read error                           : 0
        Skipped (treated as error)           : 0
        Edge jitter error (maybe fixed)      : 0
        Atom jitter error (maybe fixed)      : 0
        Drift error (maybe fixed)            : 0
        Dropped bytes error (maybe fixed)    : 0
        Duplicated bytes error (maybe fixed) : 0
        Inconsistency in error sectors       : 0

Track 02
    Filename : /Volumes/MHD2/Music Part Deux/flac/02 - Former Me.flac

    CRC32 hash (test run)  : C7E65ADA
    CRC32 hash             : C7E65ADA
    CRC32 hash (skip zero) : 41F26C82
    AccurateRip signature  : F601CE6D
        ->Track not present in AccurateRip database.
    Statistics
        Read error                           : 0
        Skipped (treated as error)           : 0
        Edge jitter error (maybe fixed)      : 0
        Atom jitter error (maybe fixed)      : 0
        Drift error (maybe fixed)            : 0
        Dropped bytes error (maybe fixed)    : 0
        Duplicated bytes error (maybe fixed) : 0
        Inconsistency in error sectors       : 0

Track 03
    Filename : /Volumes/MHD2/Music Part Deux/flac/03 - Where The Sun Don't
Shine.flac

    CRC32 hash (test run)  : BA419D20
    CRC32 hash             : BA419D20
    CRC32 hash (skip zero) : 5C1DCFAC
    AccurateRip signature  : C08239FF
        ->Track not present in AccurateRip database.
    Statistics
        Read error                           : 0
        Skipped (treated as error)           : 0
        Edge jitter error (maybe fixed)      : 0
        Atom jitter error (maybe fixed)      : 0
        Drift error (maybe fixed)            : 0
        Dropped bytes error (maybe fixed)    : 0
        Duplicated bytes error (maybe fixed) : 0
        Inconsistency in error sectors       : 0

Track 04
    Filename : /Volumes/MHD2/Music Part Deux/flac/04 - Down To Memphis.flac

    CRC32 hash (test run)  : 5875A2C7
    CRC32 hash             : 5875A2C7
    CRC32 hash (skip zero) : 451B9A5E
    AccurateRip signature  : B38B79C1
        ->Track not present in AccurateRip database.
    Statistics
        Read error                           : 0
        Skipped (treated as error)           : 0
        Edge jitter error (maybe fixed)      : 0
        Atom jitter error (maybe fixed)      : 0
        Drift error (maybe fixed)            : 0
        Dropped bytes error (maybe fixed)    : 0
        Duplicated bytes error (maybe fixed) : 0
        Inconsistency in error sectors       : 0

Track 05
    Filename : /Volumes/MHD2/Music Part Deux/flac/05 - Strange Days.flac

    CRC32 hash (test run)  : DC0488CA
    CRC32 hash             : DC0488CA
    CRC32 hash (skip zero) : 75892CCE
    AccurateRip signature  : 13AA13C1
        ->Track not present in AccurateRip database.
    Statistics
        Read error                           : 0
        Skipped (treated as error)           : 0
        Edge jitter error (maybe fixed)      : 0
        Atom jitter error (maybe fixed)      : 0
        Drift error (maybe fixed)            : 0
        Dropped bytes error (maybe fixed)    : 0
        Duplicated bytes error (maybe fixed) : 0
        Inconsistency in error sectors       : 0

Track 06
    Filename : /Volumes/MHD2/Music Part Deux/flac/06 - Cherry Street.flac

    CRC32 hash (test run)  : 10D5FA26
    CRC32 hash             : 10D5FA26
    CRC32 hash (skip zero) : A07316B5
    AccurateRip signature  : 66DCEE80
        ->Track not present in AccurateRip database.
    Statistics
        Read error                           : 0
        Skipped (treated as error)           : 0
        Edge jitter error (maybe fixed)      : 0
        Atom jitter error (maybe fixed)      : 0
        Drift error (maybe fixed)            : 0
        Dropped bytes error (maybe fixed)    : 0
        Duplicated bytes error (maybe fixed) : 0
        Inconsistency in error sectors       : 0

Track 07
    Filename : /Volumes/MHD2/Music Part Deux/flac/07 - Fonda-Lina.flac

    CRC32 hash (test run)  : 944D6084
    CRC32 hash             : 944D6084
    CRC32 hash (skip zero) : 2C9AD09B
    AccurateRip signature  : 79E707ED
        ->Track not present in AccurateRip database.
    Statistics
        Read error                           : 0
        Skipped (treated as error)           : 0
        Edge jitter error (maybe fixed)      : 0
        Atom jitter error (maybe fixed)      : 0
        Drift error (maybe fixed)            : 0
        Dropped bytes error (maybe fixed)    : 0
        Duplicated bytes error (maybe fixed) : 0
        Inconsistency in error sectors       : 0

Track 08
    Filename : /Volumes/MHD2/Music Part Deux/flac/08 - Leaving In The
Morning.flac

    CRC32 hash (test run)  : 580BFAB3
    CRC32 hash             : 580BFAB3
    CRC32 hash (skip zero) : 0B4099F1
    AccurateRip signature  : 78FEE40A
        ->Track not present in AccurateRip database.
    Statistics
        Read error                           : 0
        Skipped (treated as error)           : 0
        Edge jitter error (maybe fixed)      : 0
        Atom jitter error (maybe fixed)      : 0
        Drift error (maybe fixed)            : 0
        Dropped bytes error (maybe fixed)    : 0
        Duplicated bytes error (maybe fixed) : 0
        Inconsistency in error sectors       : 0

Track 09
    Filename : /Volumes/MHD2/Music Part Deux/flac/09 - Oh Mary.flac

    CRC32 hash (test run)  : 998781DC
    CRC32 hash             : 998781DC
    CRC32 hash (skip zero) : 7C17E924
    AccurateRip signature  : 33777FDB
        ->Track not present in AccurateRip database.
    Statistics
        Read error                           : 0
        Skipped (treated as error)           : 0
        Edge jitter error (maybe fixed)      : 0
        Atom jitter error (maybe fixed)      : 0
        Drift error (maybe fixed)            : 0
        Dropped bytes error (maybe fixed)    : 0
        Duplicated bytes error (maybe fixed) : 0
        Inconsistency in error sectors       : 0

Track 10
    Filename : /Volumes/MHD2/Music Part Deux/flac/10 - Old Friend.flac

    CRC32 hash (test run)  : 74308744
    CRC32 hash             : 74308744
    CRC32 hash (skip zero) : 27A949B8
    AccurateRip signature  : B62010E4
        ->Track not present in AccurateRip database.
    Statistics
        Read error                           : 0
        Skipped (treated as error)           : 0
        Edge jitter error (maybe fixed)      : 0
        Atom jitter error (maybe fixed)      : 0
        Drift error (maybe fixed)            : 0
        Dropped bytes error (maybe fixed)    : 0
        Duplicated bytes error (maybe fixed) : 0
        Inconsistency in error sectors       : 0

Track 11
    Filename : /Volumes/MHD2/Music Part Deux/flac/11 - Roll On.flac

    CRC32 hash (test run)  : 8FC8E7BB
    CRC32 hash             : 8FC8E7BB
    CRC32 hash (skip zero) : 9545504E
    AccurateRip signature  : 533CF2CF
        ->Track not present in AccurateRip database.
    Statistics
        Read error                           : 0
        Skipped (treated as error)           : 0
        Edge jitter error (maybe fixed)      : 0
        Atom jitter error (maybe fixed)      : 0
        Drift error (maybe fixed)            : 0
        Dropped bytes error (maybe fixed)    : 0
        Duplicated bytes error (maybe fixed) : 0
        Inconsistency in error sectors       : 0

Track 12
    Filename : /Volumes/MHD2/Music Part Deux/flac/12 - Bring Down The
Curtain.flac

    CRC32 hash (test run)  : C8B9C265
    CRC32 hash             : C8B9C265
    CRC32 hash (skip zero) : A6A3F6B3
    AccurateRip signature  : 291CBD57
        ->Track not present in AccurateRip database.
    Statistics
        Read error                           : 0
        Skipped (treated as error)           : 0
        Edge jitter error (maybe fixed)      : 0
        Atom jitter error (maybe fixed)      : 0
        Drift error (maybe fixed)            : 0
        Dropped bytes error (maybe fixed)    : 0
        Duplicated bytes error (maybe fixed) : 0
        Inconsistency in error sectors       : 0

No errors occurred

End of status report

Comments