World`s biggest lossless archive
Artist
2014 0-9 z y x w v u t s r q p o n m l k j i h g f e d c b a

Pillar - Where Do We Go From Here '2004

Bitrates:
FLAC:1062 KbpsMP3:320 KbpsALAC:900 Kbps
ArtistPillar
Album name Where Do We Go From Here
Date 2004
GenreAlternative
Play time 00:42:13
Format FLAC
Carrier CD
Bitrate 1062 Kbps
Size 304.59 Mb
Status Checked    CUE+LOG OK
Price$2.44
Download album

For download albums, larger than 1GB, please use program "Download manager" or any other. For Windows or Mac.

Track list

1. (00:00:00) Pillar - Hypnotized
2. (00:03:30) Pillar - Bring Me Down
3. (00:03:21) Pillar - Holding On
4. (00:03:19) Pillar - Let It Out
5. (00:04:11) Pillar - Simply
6. (00:03:44) Pillar - Rewind
7. (00:00:00) Pillar - Frontline
8. (00:00:00) Pillar - Underneath It All
9. (00:02:17) Pillar - Dirty Little Secret
10. (00:02:50) Pillar - Staring Back
11. (00:03:57) Pillar - One Thing
12. (00:03:50) Pillar - Aftershock

Archive content

2004 - Where Do We Go from Here/ - 0.00
2004 - Where Do We Go from Here/01 - Hypnotized .flac - 26.84
2004 - Where Do We Go from Here/02 - Bring Me Down .flac - 26.64
2004 - Where Do We Go from Here/03 - Holding On .flac - 25.21
2004 - Where Do We Go from Here/04 - Let It Out .flac - 23.35
2004 - Where Do We Go from Here/05 - Simply .flac - 30.53
2004 - Where Do We Go from Here/06 - Rewind .flac - 26.53
2004 - Where Do We Go from Here/07 - Frontline .flac - 22.96
2004 - Where Do We Go from Here/08 - Underneath It All .flac - 23.01
2004 - Where Do We Go from Here/09 - Dirty Little Secret .flac - 17.53
2004 - Where Do We Go from Here/10 - Staring Back .flac - 21.71
2004 - Where Do We Go from Here/11 - One Thing .flac - 37.27
2004 - Where Do We Go from Here/12 - Aftershock .flac - 22.63
2004 - Where Do We Go from Here/cover.jpg - 0.50
2004 - Where Do We Go from Here/Pillar - Where Do We Go from Here.cue - 0.00
2004 - Where Do We Go from Here/Pillar - Where Do We Go from Here.log - 0.01
Show Log file:
Exact Audio Copy V0.99 prebeta 4 from 23. January 2008

EAC extraction logfile from 10. December 2008, 22:06

Pillar / Where Do We Go from Here

Used drive  : TSSTcorpCD/DVDW SH-S182M   Adapter: 2  ID: 1

Read mode               : Secure
Utilize accurate stream : Yes
Defeat audio cache      : Yes
Make use of C2 pointers : No

Read offset correction                      : 6
Overread into Lead-In and Lead-Out          : No
Fill up missing offset samples with silence : Yes
Delete leading and trailing silent blocks   : No
Null samples used in CRC calculations       : Yes
Used interface                              : Native Win32 interface for Win NT
& 2000
Gap handling                                : Appended to previous track

Used output format              : User Defined Encoder
Selected bitrate                : 768 kBit/s
Quality                         : High
Add ID3 tag                     : No
Command line compressor         : C:Program FilesExact Audio CopyFLACFLAC.EXE
Additional command line options : -6 -V -T "ARTIST=%a" -T "TITLE=%t" -T
"ALBUM=%g" -T "DATE=%y" -T "TRACKNUMBER=%n" -T "GENRE=%m" -T "COMMENT=%e" %s -o
%d


TOC of the extracted CD

     Track |   Start  |  Length  | Start sector | End sector 
    ---------------------------------------------------------
        1  |  0:00.00 |  3:50.09 |         0    |    17258   
        2  |  3:50.09 |  3:30.45 |     17259    |    33053   
        3  |  7:20.54 |  3:21.41 |     33054    |    48169   
        4  | 10:42.20 |  3:20.02 |     48170    |    63171   
        5  | 14:02.22 |  4:14.13 |     63172    |    82234   
        6  | 18:16.35 |  3:45.04 |     82235    |    99113   
        7  | 22:01.39 |  3:10.68 |     99114    |   113431   
        8  | 25:12.32 |  3:11.50 |    113432    |   127806   
        9  | 28:24.07 |  2:18.71 |    127807    |   138227   
       10  | 30:43.03 |  2:51.26 |    138228    |   151078   
       11  | 33:34.29 |  5:28.43 |    151079    |   175721   
       12  | 39:02.72 |  3:09.20 |    175722    |   189916   


Track  1

     Filename H:Pillar - 01 - Hypnotized.wav

     Pre-gap length  0:00:02.00

     Peak level 100.0 %
     Track quality 99.9 %
     Test CRC 4700D830
     Copy CRC 4700D830
     Accurately ripped (confidence 41)  [71A6558A]
     Copy OK

Track  2

     Filename H:Pillar - 02 - Bring Me Down.wav

     Peak level 100.0 %
     Track quality 100.0 %
     Test CRC ED5B573F
     Copy CRC ED5B573F
     Accurately ripped (confidence 41)  [382F3264]
     Copy OK

Track  3

     Filename H:Pillar - 03 - Holding On.wav

     Pre-gap length  0:00:00.12

     Peak level 100.0 %
     Track quality 99.9 %
     Test CRC D9705376
     Copy CRC D9705376
     Accurately ripped (confidence 41)  [26D99B7B]
     Copy OK

Track  4

     Filename H:Pillar - 04 - Let It Out.wav

     Pre-gap length  0:00:00.21

     Peak level 100.0 %
     Track quality 100.0 %
     Test CRC E7186440
     Copy CRC E7186440
     Accurately ripped (confidence 41)  [998D8F7F]
     Copy OK

Track  5

     Filename H:Pillar - 05 - Simply.wav

     Pre-gap length  0:00:00.60

     Peak level 100.0 %
     Track quality 100.0 %
     Test CRC 5994E2D4
     Copy CRC 5994E2D4
     Accurately ripped (confidence 41)  [5B647172]
     Copy OK

Track  6

     Filename H:Pillar - 06 - Rewind.wav

     Pre-gap length  0:00:02.41

     Peak level 100.0 %
     Track quality 100.0 %
     Test CRC 154F3A4A
     Copy CRC 154F3A4A
     Accurately ripped (confidence 41)  [E1B2077E]
     Copy OK

Track  7

     Filename H:Pillar - 07 - Frontline.wav

     Pre-gap length  0:00:00.30

     Peak level 100.0 %
     Track quality 99.9 %
     Test CRC 086E22F3
     Copy CRC 086E22F3
     Accurately ripped (confidence 40)  [5C556D4F]
     Copy OK

Track  8

     Filename H:Pillar - 08 - Underneath It All.wav

     Peak level 100.0 %
     Track quality 100.0 %
     Test CRC 0C641B18
     Copy CRC 0C641B18
     Accurately ripped (confidence 40)  [6CA8F650]
     Copy OK

Track  9

     Filename H:Pillar - 09 - Dirty Little Secret.wav

     Peak level 100.0 %
     Track quality 100.0 %
     Test CRC 0F4EF7F2
     Copy CRC 0F4EF7F2
     Accurately ripped (confidence 40)  [4028222A]
     Copy OK

Track 10

     Filename H:Pillar - 10 - Staring Back.wav

     Pre-gap length  0:00:01.05

     Peak level 100.0 %
     Track quality 99.9 %
     Test CRC 348D2C6D
     Copy CRC 348D2C6D
     Accurately ripped (confidence 39)  [307CD483]
     Copy OK

Track 11

     Filename H:Pillar - 11 - One Thing.wav

     Pre-gap length  0:00:00.73

     Peak level 100.0 %
     Track quality 100.0 %
     Test CRC 9F0970B3
     Copy CRC 9F0970B3
     Accurately ripped (confidence 39)  [F0696A74]
     Copy OK

Track 12

     Filename H:Pillar - 12 - Aftershock.wav

     Pre-gap length  0:01:31.06

     Peak level 100.0 %
     Track quality 99.9 %
     Test CRC 1DC99768
     Copy CRC 1DC99768
     Accurately ripped (confidence 40)  [11C858A3]
     Copy OK


All tracks accurately ripped

No errors occurred

End of status report

Comments