World`s biggest lossless archive
Artist
2014 0-9 z y x w v u t s r q p o n m l k j i h g f e d c b a

Heart - Passionworks '1983

Bitrates:
FLAC:833 KbpsMP3:320 KbpsALAC:900 Kbps
ArtistHeart
Album name Passionworks
Date 1983
GenreRock
Play time 00:42:27
Format FLAC
Carrier CD
Bitrate 833 Kbps
Size 255.02 Mb
Status Checked    CUE+LOG OK
Price$2.04
Download album

For download albums, larger than 1GB, please use program "Download manager" or any other. For Windows or Mac.

Track list

1. (00:03:54) Heart - How Can I Refuse
2. (00:03:57) Heart - Blue Guitar
3. (00:04:03) Heart - Johnny Moon
4. (00:04:15) Heart - Sleep Alone
5. (00:03:55) Heart - Together Now
6. (00:04:41) Heart - Allies
7. (00:03:23) Heart - (Beat By) Jealousy
8. (00:03:52) Heart - Heavy Heart
9. (00:03:30) Heart - Love Mistake
10. (00:03:40) Heart - Language Of Love
11. (00:03:17) Heart - Ambush

Archive content

Heart-Passion_Works_1983/ - 0.00
Heart-Passion_Works_1983/Covers/ - 0.00
Heart-Passion_Works_1983/Covers/Heart - Passionworks - Front.jpg - 0.77
Heart-Passion_Works_1983/Covers/Heart - Passionworks - Back.jpg - 1.07
Heart-Passion_Works_1983/Heart - Passionworks.cue - 0.00
Heart-Passion_Works_1983/Heart - Passionworks.log - 0.00
Heart-Passion_Works_1983/Heart - Passionworks.flac - 253.19
Show Log file:
Exact Audio Copy V0.99 prebeta 4 from 23. January 2008

Отчёт EAC об извлечении, выполненном 11.
апреля 2008, 17:04

Heart / Passionworks

Дисковод: HL-DT-STDVDRAM GSA-H42N   Adapter: 1  ID: 0

Режим чтения                 : Достоверность
Использование точного потока : Да
Отключение кэша аудио        : Да
Использование указателей C2  : Нет

Комбинированное смещение чтения/записи       
    : 0
Способность читать области Lead-in и Lead-out     :
Нет
Заполнение пропущенных сэмплов тишиной       
    : Да
Удаление блоков с тишиной в начале и конце   
    : Нет
При вычислениях CRC использовались нулевые
сэмплы : Да
Интерфейс                                         :
Установленный внешний ASPI-интерфейс

Выходной формат          : Пользовательский
кодировщик
Выбранный битрейт        : 1024 kBit/s
Качество                 : Высокий
Добавление ID3-тэга      : Да
Утилита сжатия           : C:Program FilesFLACflac.exe


TOC извлечённого CD

     Трек |   Старт  | Длительность | Начальный
сектор | Конечный сектор 
    ---------------------------------------------------------------------
       1  |  0:00.00 |    3:54.46   |           0      |      17595      
       2  |  3:54.46 |    3:56.70   |       17596      |      35365      
       3  |  7:51.41 |    4:03.25   |       35366      |      53615      
       4  | 11:54.66 |    4:15.03   |       53616      |      72743      
       5  | 16:09.69 |    3:54.18   |       72744      |      90311      
       6  | 20:04.12 |    4:41.59   |       90312      |     111445      
       7  | 24:45.71 |    3:22.35   |      111446      |     126630      
       8  | 28:08.31 |    3:52.35   |      126631      |     144065      
       9  | 32:00.66 |    3:29.47   |      144066      |     159787      
      10  | 35:30.38 |    3:39.63   |      159788      |     176275      
      11  | 39:10.26 |    3:16.74   |      176276      |     191049      


Характеристики диапазона извлечения и
сообщения об ошибках

Выбранный диапазон

     Имя файла C:_CDRIPHeart-Passion_Works_1983Heart - Passionworks.wav

     Пиковый уровень 89.3 %
     Качество диапазона 100.0 %
     CRC копии 50E1435A
     Копирование... OK

Ошибок не произошло

Конец отчёта

Comments