World`s biggest lossless archive
Artist
2014 0-9 z y x w v u t s r q p o n m l k j i h g f e d c b a

Kenny Rogers - Back Home Again '1991

Bitrates:
FLAC:738 KbpsMP3:320 KbpsALAC:900 Kbps
ArtistKenny Rogers
Album name Back Home Again
Date 1991
GenreCountry
Play time 00:32:56
Format APE
Media CD
Bitrate 738 Kbps
Size 174.22 Mb
Status Checked    CUE+LOG OK
Price$1.39
Download album

For download albums, larger than 1GB, please use program "Download manager" or any other. For Windows or Mac.

Track list

1. (00:03:08) Kenny Rogers - If You Want To Find Love
2. (00:03:39) Kenny Rogers - Bed Of Roses
3. (00:03:32) Kenny Rogers - Someone Must Feel Like A Fool Tonight
4. (00:02:59) Kenny Rogers - Two Good Reasons
5. (00:03:12) Kenny Rogers - Some Prisons Don't Have Walls
6. (00:03:49) Kenny Rogers - They Just Don't Make 'em Like You Anymore
7. (00:02:55) Kenny Rogers - When You Were Loving Me
8. (00:03:07) Kenny Rogers - Sunshine
9. (00:02:50) Kenny Rogers - I'll Be There For You
10. (00:03:37) Kenny Rogers - How Do I Break It To My Heart

Archive content

front.jpg - 0.25
Kenny Rogers - Back Home Again.cue - 0.00
Kenny Rogers - Back Home Again.log - 0.00
Kenny Rogers - Back Home Again.ape - 173.85
back.jpg - 0.13
Show Log file:
Exact Audio Copy V0.99 prebeta 5 from 4. May 2009

EAC extraction logfile from 5. July 2009, 8:43

Kenny Rogers / Back Home Again

Used drive  : HL-DT-STDVDRAM GH20NS10   Adapter: 3  ID: 0

Read mode               : Secure
Utilize accurate stream : Yes
Defeat audio cache      : Yes
Make use of C2 pointers : No

Read offset correction                      : 667
Overread into Lead-In and Lead-Out          : No
Fill up missing offset samples with silence : Yes
Delete leading and trailing silent blocks   : No
Null samples used in CRC calculations       : Yes
Used interface                              : Installed external ASPI interface

Used output format              : User Defined Encoder
Selected bitrate                : 768 kBit/s
Quality                         : High
Add ID3 tag                     : Yes
Command line compressor         : C:Program FilesExact Audio CopyFlacflac.exe


TOC of the extracted CD

     Track |   Start  |  Length  | Start sector | End sector 
    ---------------------------------------------------------
        1  |  0:00.00 |  3:09.05 |         0    |    14179   
        2  |  3:09.05 |  3:40.63 |     14180    |    30742   
        3  |  6:49.68 |  3:32.30 |     30743    |    46672   
        4  | 10:22.23 |  2:58.57 |     46673    |    60079   
        5  | 13:21.05 |  3:13.43 |     60080    |    74597   
        6  | 16:34.48 |  3:49.20 |     74598    |    91792   
        7  | 20:23.68 |  2:54.67 |     91793    |   104909   
        8  | 23:18.60 |  3:08.28 |    104910    |   119037   
        9  | 26:27.13 |  2:52.02 |    119038    |   131939   
       10  | 29:19.15 |  3:36.50 |    131940    |   148189   


Range status and errors

Selected range

     Filename E:MuzikaRIPnatiKenny Rogers - Back Home Again.wav

     Peak level 100.0 %
     Range quality 100.0 %
     Test CRC 85F210E9
     Copy CRC 85F210E9
     Copy OK

No errors occurred

 
AccurateRip summary
 
Track  1  not present in database
Track  2  not present in database
Track  3  not present in database
Track  4  not present in database
Track  5  not present in database
Track  6  not present in database
Track  7  not present in database
Track  8  not present in database
Track  9  not present in database
Track 10  not present in database
 
None of the tracks are present in the AccurateRip database

End of status report

Comments