World`s biggest lossless archive
Artist
2014 0-9 z y x w v u t s r q p o n m l k j i h g f e d c b a

LeAnn Rimes - You Light Up My Life: Inspirational Songs (Japan) '1997

Bitrates:
FLAC:864 KbpsMP3:320 KbpsALAC:900 Kbps
ArtistLeAnn Rimes
Album name You Light Up My Life: Inspirational Songs (Japan)
Date 1997
GenreCountry
Play time 00:45:35
Format APE
Carrier CD
Bitrate 864 Kbps
Size 290.91 Mb
Status Checked    CUE+LOG OK
Price$2.33
Download album

For download albums, larger than 1GB, please use program "Download manager" or any other. For Windows or Mac.

Track list

1. (00:03:37) LeAnn Rimes - You Light Up My Life
2. (00:03:34) LeAnn Rimes - The Rose
3. (00:04:40) LeAnn Rimes - Bridge Over Troubled Waters
4. (00:02:21) LeAnn Rimes - I Believe
5. (00:03:59) LeAnn Rimes - Ten Thousand Angels Cried
6. (00:02:44) LeAnn Rimes - Clinging To A Saving Hand
7. (00:03:49) LeAnn Rimes - On The Side Of Angels
8. (00:04:41) LeAnn Rimes - I Know Who Holds Tomorrow
9. (00:03:05) LeAnn Rimes - God Bless America
10. (00:04:56) LeAnn Rimes - How Do I Live
11. (00:04:05) LeAnn Rimes - Amazing Grace
12. (00:03:56) LeAnn Rimes - How Do I Live (Mr. Mig Remix) (Bonus Track)
0. (00:03:56) LeAnn Rimes -

Archive content

(1997) You Light Up My Life - Inspirational Songs (Japan)/ - 0.00
(1997) You Light Up My Life - Inspirational Songs (Japan)/Covers/ - 0.00
(1997) You Light Up My Life - Inspirational Songs (Japan)/Covers/01 - You Light Up My Life - Inspirational Songs (Japan) - front.jpg - 0.60
(1997) You Light Up My Life - Inspirational Songs (Japan)/Covers/02 - You Light Up My Life - Inspirational Songs (Japan) - back.jpg - 0.73
(1997) You Light Up My Life - Inspirational Songs (Japan)/Covers/03 - You Light Up My Life - Inspirational Songs (Japan) - cd.jpg - 0.42
(1997) You Light Up My Life - Inspirational Songs (Japan)/Covers/04 - You Light Up My Life - Inspirational Songs (Japan) - booklet01.jpg - 1.17
(1997) You Light Up My Life - Inspirational Songs (Japan)/Covers/05 - You Light Up My Life - Inspirational Songs (Japan) - booklet02.jpg - 0.76
(1997) You Light Up My Life - Inspirational Songs (Japan)/Covers/06 - You Light Up My Life - Inspirational Songs (Japan) - booklet03.jpg - 1.02
(1997) You Light Up My Life - Inspirational Songs (Japan)/Covers/07 - You Light Up My Life - Inspirational Songs (Japan) - booklet04.jpg - 0.94
(1997) You Light Up My Life - Inspirational Songs (Japan)/Covers/08 - You Light Up My Life - Inspirational Songs (Japan) - booklet05.jpg - 0.49
(1997) You Light Up My Life - Inspirational Songs (Japan)/Covers/09 - You Light Up My Life - Inspirational Songs (Japan) - booklet06.jpg - 0.55
(1997) You Light Up My Life - Inspirational Songs (Japan)/Covers/10 - You Light Up My Life - Inspirational Songs (Japan) - booklet07.jpg - 0.50
(1997) You Light Up My Life - Inspirational Songs (Japan)/Covers/11 - You Light Up My Life - Inspirational Songs (Japan) - booklet08.jpg - 0.66
(1997) You Light Up My Life - Inspirational Songs (Japan)/Covers/12 - You Light Up My Life - Inspirational Songs (Japan) - booklet09.jpg - 0.72
(1997) You Light Up My Life - Inspirational Songs (Japan)/Covers/13 - You Light Up My Life - Inspirational Songs (Japan) - booklet10.jpg - 0.97
(1997) You Light Up My Life - Inspirational Songs (Japan)/You Light Up My Life - Inspirational Songs (Japan).ape - 281.79
(1997) You Light Up My Life - Inspirational Songs (Japan)/You Light Up My Life - Inspirational Songs (Japan).cue - 0.00
(1997) You Light Up My Life - Inspirational Songs (Japan)/You Light Up My Life - Inspirational Songs (Japan).log - 0.00
Show Log file:
Exact Audio Copy V0.99 prebeta 5 from 4. May 2009

EAC extraction logfile from 23. May 2009, 18:09

LeAnn Rimes / You Light Up My Life: Inspirational Songs (Japan)

Used drive  : HL-DT-STDVDRAM GSA-H62N   Adapter: 2  ID: 0

Read mode               : Secure
Utilize accurate stream : Yes
Defeat audio cache      : Yes
Make use of C2 pointers : No

Read offset correction                      : 667
Overread into Lead-In and Lead-Out          : No
Fill up missing offset samples with silence : Yes
Delete leading and trailing silent blocks   : No
Null samples used in CRC calculations       : Yes
Used interface                              : Installed external ASPI interface

Used output format : Internal WAV Routines
Sample format      : 44.100 Hz; 16 Bit; Stereo


TOC of the extracted CD

     Track |   Start  |  Length  | Start sector | End sector 
    ---------------------------------------------------------
        1  |  0:00.00 |  3:37.53 |         0    |    16327   
        2  |  3:37.53 |  3:33.45 |     16328    |    32347   
        3  |  7:11.23 |  4:40.17 |     32348    |    53364   
        4  | 11:51.40 |  2:22.13 |     53365    |    64027   
        5  | 14:13.53 |  3:59.40 |     64028    |    81992   
        6  | 18:13.18 |  2:44.65 |     81993    |    94357   
        7  | 20:58.08 |  3:49.37 |     94358    |   111569   
        8  | 24:47.45 |  4:41.53 |    111570    |   132697   
        9  | 29:29.23 |  3:06.20 |    132698    |   146667   
       10  | 32:35.43 |  4:57.45 |    146668    |   168987   
       11  | 37:33.13 |  4:06.47 |    168988    |   187484   
       12  | 41:39.60 |  3:55.10 |    187485    |   205119   


Range status and errors

Selected range

     Filename D:TempYou Light Up My Life - Inspirational Songs (Japan).wav

     Peak level 100.0 %
     Range quality 100.0 %
     Copy CRC DAC74680
     Copy OK

No errors occurred

 
AccurateRip summary
 
Track  1  not present in database
Track  2  not present in database
Track  3  not present in database
Track  4  not present in database
Track  5  not present in database
Track  6  not present in database
Track  7  not present in database
Track  8  not present in database
Track  9  not present in database
Track 10  not present in database
Track 11  not present in database
Track 12  not present in database
 
None of the tracks are present in the AccurateRip database

End of status report

Comments