World`s biggest lossless archive
Artist
2014 0-9 z y x w v u t s r q p o n m l k j i h g f e d c b a

Radiohead - Creep '1993

Bitrates:
FLAC:801 KbpsMP3:320 KbpsALAC:900 Kbps
ArtistRadiohead
Album name Creep
Date 1993
GenreAlternative Rock
Play time 00:15:51
Format FLAC
Media CD
Bitrate 801 Kbps
Size 93.74 Mb
Status Checked    CUE+LOG OK
Price$0.75
Download album

For download albums, larger than 1GB, please use program "Download manager" or any other. For Windows or Mac.

Track list

1. (00:03:59) Radiohead - Creep (Album Version)
2. (00:04:24) Radiohead - Yes I Am
3. (00:03:06) Radiohead - Inside My Head (Live)
4. (00:04:19) Radiohead - Creep (Live)

Archive content

Radiohead1993Creep/ - 0.00
Radiohead1993Creep/Booklet/ - 0.00
Radiohead1993Creep/Booklet/back.jpg - 1.20
Radiohead1993Creep/Booklet/disc.jpg - 0.34
Radiohead1993Creep/Booklet/front.jpg - 1.23
Radiohead1993Creep/cover.jpg - 0.10
Radiohead1993Creep/Radiohead - Creep.cue - 0.00
Radiohead1993Creep/Radiohead - Creep.flac - 90.86
Radiohead1993Creep/Radiohead - Creep.log - 0.00
Radiohead1993Creep/~Radiohead - Creep.txt - 0.00
Show Log file:
EAC extraction logfile from 17. March 2007, 13:56 for CD
Radiohead / Creep 4 Track EP (Dutch Release)

Used drive  : HP      DVD Writer 640b   Adapter: 0  ID: 0
Read mode   : Secure with NO C2, accurate stream, disable cache
Read offset correction : 102
Overread into Lead-In and Lead-Out : No

Used output format : C:Program FilesExact Audio Copybinflac.exe   (User Defined
Encoder)
                     192 kBit/s
                     Additional command line options : -8 -A tukey(0.25) -A
gauss(0.1875) -b 4096 -V -T "artist=%a" -T "title=%t" -T "album=%g" -T "date=%y"
-T "tracknumber=%n" -T "genre=%m" %s --sector-align

Other options      : 
    Fill up missing offset samples with silence : Yes
    Delete leading and trailing silent blocks : No
    Installed external ASPI interface


Track  1
     Filename C:Documents and SettingsHP_AdministratorDesktopTORRENTSCreep 4
Track EP (Dutch Release)1 - Radiohead - Creep (album version).wav

     Pre-gap length  0:00:02.44

     Peak level 100.0 %
     Track quality 100.0 %
     Test CRC AB3DB36D
     Copy CRC AB3DB36D
     Copy OK

Track  2
     Filename C:Documents and SettingsHP_AdministratorDesktopTORRENTSCreep 4
Track EP (Dutch Release)2 - Radiohead - Yes I Am.wav

     Pre-gap length  0:00:00.02

     Peak level 94.0 %
     Track quality 100.0 %
     Test CRC 8C466A9D
     Copy CRC 8C466A9D
     Copy OK

Track  3
     Filename C:Documents and SettingsHP_AdministratorDesktopTORRENTSCreep 4
Track EP (Dutch Release)3 - Radiohead - Inside My Head (live).wav

     Pre-gap length  0:00:01.06

     Peak level 100.0 %
     Track quality 100.0 %
     Test CRC 868F2560
     Copy CRC 868F2560
     Copy OK

Track  4
     Filename C:Documents and SettingsHP_AdministratorDesktopTORRENTSCreep 4
Track EP (Dutch Release)4 - Radiohead - Creep (live).wav

     Pre-gap length  0:00:01.00

     Peak level 98.8 %
     Track quality 100.0 %
     Test CRC F4853FE1
     Copy CRC F4853FE1
     Copy OK

No errors occured

Checking AccurateRip database

Track	Ripping Status		[Disc ID: 0002bbd4-2803b704]

 1	Accurately Ripped    (confidence 4)     [fd3c75c6]
 2	Accurately Ripped    (confidence 7)     [aa4a73e8]
 3	Accurately Ripped    (confidence 7)     [333b2324]
 4	Accurately Ripped    (confidence 7)     [0f5d9bc2]

_______________________

All Tracks Accurately Ripped.

End of status report

Comments