World`s biggest lossless archive
Artist
2014 0-9 z y x w v u t s r q p o n m l k j i h g f e d c b a

Al Jarreau - Hear '1988

Bitrates:
FLAC:923 KbpsMP3:320 KbpsALAC:900 Kbps
ArtistAl Jarreau
Album name Hear
Date 1988
GenreJazz+Funk
Play time 00:50:10
Format FLAC
Media CD
Bitrate 923 Kbps
Size 303.44 Mb
Status Checked    CUE+LOG OK
Price$2.43
Download album

For download albums, larger than 1GB, please use program "Download manager" or any other. For Windows or Mac.

Track list

1. (00:00:00) Al Jarreau - All or Nothing At All
2. (00:00:00) Al Jarreau - So Good
3. (00:00:00) Al Jarreau - All of My Love
4. (00:00:00) Al Jarreau - Pleasure Over Pain
5. (00:00:00) Al Jarreau - Yo' Jeans
6. (00:00:00) Al Jarreau - Way to Your Heart
7. (00:00:00) Al Jarreau - One Way
8. (00:00:00) Al Jarreau - 10K Hi
9. (00:00:00) Al Jarreau - I Must Have Been a Fool
10. (00:00:00) Al Jarreau - More Love
11. (00:00:00) Al Jarreau - Killer Love
12. (00:03:58) Al Jarreau - Heart's Horizon
1. (00:00:00) Al Jarreau - All or Nothing At All
2. (00:00:00) Al Jarreau - So Good
3. (00:00:00) Al Jarreau - All of My Love
4. (00:00:00) Al Jarreau - Pleasure Over Pain
5. (00:00:00) Al Jarreau - Yo' Jeans
6. (00:00:00) Al Jarreau - Way to Your Heart
7. (00:00:00) Al Jarreau - One Way
8. (00:00:00) Al Jarreau - 10K Hi
9. (00:00:00) Al Jarreau - I Must Have Been a Fool
10. (00:00:00) Al Jarreau - More Love
11. (00:00:00) Al Jarreau - Killer Love
12. (00:04:39) Al Jarreau - Heart's Horizon

Archive content

Al Jarreau (1988) Heart's Horizon/ - 0.00
Al Jarreau (1988) Heart's Horizon/Al Jarreau - Heart's Horizon - 01 - All or Nothing At All.flac - 24.26
Al Jarreau (1988) Heart's Horizon/Al Jarreau - Heart's Horizon - 02 - So Good.flac - 28.34
Al Jarreau (1988) Heart's Horizon/Al Jarreau - Heart's Horizon - 03 - All of My Love.flac - 29.45
Al Jarreau (1988) Heart's Horizon/Al Jarreau - Heart's Horizon - 04 - Pleasure Over Pain.flac - 31.40
Al Jarreau (1988) Heart's Horizon/Al Jarreau - Heart's Horizon - 05 - Yo' Jeans.flac - 8.48
Al Jarreau (1988) Heart's Horizon/Al Jarreau - Heart's Horizon - 06 - Way to Your Heart.flac - 29.24
Al Jarreau (1988) Heart's Horizon/Al Jarreau - Heart's Horizon - 07 - One Way.flac - 28.55
Al Jarreau (1988) Heart's Horizon/Al Jarreau - Heart's Horizon - 08 - 10K Hi.flac - 22.80
Al Jarreau (1988) Heart's Horizon/Al Jarreau - Heart's Horizon - 09 - I Must Have Been a Fool.flac - 27.70
Al Jarreau (1988) Heart's Horizon/Al Jarreau - Heart's Horizon - 10 - More Love.flac - 20.24
Al Jarreau (1988) Heart's Horizon/Al Jarreau - Heart's Horizon - 11 - Killer Love.flac - 26.43
Al Jarreau (1988) Heart's Horizon/Al Jarreau - Heart's Horizon - 12 - Heart's Horizon.flac - 26.33
Al Jarreau (1988) Heart's Horizon/Al Jarreau - Heart's Horizon.log - 0.01
Al Jarreau (1988) Heart's Horizon/Al Jarreau - Heart's Horizon.m3u - 0.00
Al Jarreau (1988) Heart's Horizon/Cover/ - 0.00
Al Jarreau (1988) Heart's Horizon/Cover/Al Jarreau - Hearts Horizon - Back.jpg - 0.15
Al Jarreau (1988) Heart's Horizon/Cover/Al Jarreau - Hearts Horizon - Front.jpg - 0.07
Al Jarreau (1988) Heart's Horizon/Cover/cd-back.jpg - 0.08
Al Jarreau (1988) Heart's Horizon/Cover/cd-front.jpg - 0.06
Al Jarreau (1988) Heart's Horizon/Heart's Horizon flac.cue - 0.00
Al Jarreau (1988) Heart's Horizon/Heart's Horizon.cue - 0.00
Al Jarreau (1988) Heart's Horizon/Info.txt - 0.01
Al Jarreau (1988) Heart's Horizon/Torrent downloaded from Demonoid.com.txt - 0.00
Show Log file:
Exact Audio Copy V0.99 prebeta 4 from 23. January 2008

EAC extraction logfile from 16. August 2009, 10:45

Al Jarreau / Heart's Horizon

Used drive  : HL-DT-STDVDRAM GSA-E10L   Adapter: 2  ID: 0

Read mode               : Secure
Utilize accurate stream : Yes
Defeat audio cache      : Yes
Make use of C2 pointers : No

Read offset correction                      : 667
Overread into Lead-In and Lead-Out          : No
Fill up missing offset samples with silence : Yes
Delete leading and trailing silent blocks   : No
Null samples used in CRC calculations       : Yes
Used interface                              : Installed external ASPI interface
Gap handling                                : Appended to next track

Used output format              : User Defined Encoder
Selected bitrate                : 768 kBit/s
Quality                         : High
Add ID3 tag                     : No
Command line compressor         : C:ProgrammiExact Audio CopyFLACFLAC.EXE
Additional command line options : -V -8 -T "artist=%a" -T "title=%t" -T
"album=%g" -T "date=%y" -T "tracknumber=%n" -T "genre=%m" %s


TOC of the extracted CD

     Track |   Start  |  Length  | Start sector | End sector 
    ---------------------------------------------------------
        1  |  0:00.32 |  3:58.28 |        32    |    17909   
        2  |  3:58.60 |  4:39.60 |     17910    |    38894   
        3  |  8:38.45 |  4:43.67 |     38895    |    60186   
        4  | 13:22.37 |  5:20.73 |     60187    |    84259   
        5  | 18:43.35 |  1:46.25 |     84260    |    92234   
        6  | 20:29.60 |  4:35.17 |     92235    |   112876   
        7  | 25:05.02 |  4:41.68 |    112877    |   134019   
        8  | 29:46.70 |  3:45.40 |    134020    |   150934   
        9  | 33:32.35 |  4:10.67 |    150935    |   169751   
       10  | 37:43.27 |  3:36.25 |    169752    |   185976   
       11  | 41:19.52 |  4:12.33 |    185977    |   204909   
       12  | 45:32.10 |  4:37.12 |    204910    |   225696   


Track  1

     Filename C:EACripAl Jarreau - Heart's Horizon - 01 - All or Nothing At
All.wav

     Pre-gap length  0:00:02.42

     Peak level 96.0 %
     Track quality 100.0 %
     Test CRC 7600FF5E
     Copy CRC 7600FF5E
     Accurately ripped (confidence 21)  [E08F63AA]
     Copy OK

Track  2

     Filename C:EACripAl Jarreau - Heart's Horizon - 02 - So Good.wav

     Peak level 89.5 %
     Track quality 100.0 %
     Test CRC 03BD0EB6
     Copy CRC 03BD0EB6
     Accurately ripped (confidence 22)  [909E2979]
     Copy OK

Track  3

     Filename C:EACripAl Jarreau - Heart's Horizon - 03 - All of My Love.wav

     Peak level 92.3 %
     Track quality 99.9 %
     Test CRC 8FF22B87
     Copy CRC 8FF22B87
     Accurately ripped (confidence 22)  [D8919CB7]
     Copy OK

Track  4

     Filename C:EACripAl Jarreau - Heart's Horizon - 04 - Pleasure Over
Pain.wav

     Peak level 93.0 %
     Track quality 100.0 %
     Test CRC 474A55DB
     Copy CRC 474A55DB
     Accurately ripped (confidence 21)  [0E1BAEE8]
     Copy OK

Track  5

     Filename C:EACripAl Jarreau - Heart's Horizon - 05 - Yo' Jeans.wav

     Peak level 53.1 %
     Track quality 100.0 %
     Test CRC F53959C5
     Copy CRC F53959C5
     Accurately ripped (confidence 22)  [60F0C6D6]
     Copy OK

Track  6

     Filename C:EACripAl Jarreau - Heart's Horizon - 06 - Way to Your Heart.wav

     Pre-gap length  0:00:00.86

     Peak level 84.1 %
     Track quality 100.0 %
     Test CRC 030ABEDE
     Copy CRC 030ABEDE
     Accurately ripped (confidence 22)  [1C6FC2EA]
     Copy OK

Track  7

     Filename C:EACripAl Jarreau - Heart's Horizon - 07 - One Way.wav

     Pre-gap length  0:00:00.66

     Peak level 96.2 %
     Track quality 99.9 %
     Test CRC C4E1B4F1
     Copy CRC C4E1B4F1
     Accurately ripped (confidence 22)  [9330EA0B]
     Copy OK

Track  8

     Filename C:EACripAl Jarreau - Heart's Horizon - 08 - 10K Hi.wav

     Peak level 60.6 %
     Track quality 100.0 %
     Test CRC 55A7888B
     Copy CRC 55A7888B
     Accurately ripped (confidence 22)  [36777820]
     Copy OK

Track  9

     Filename C:EACripAl Jarreau - Heart's Horizon - 09 - I Must Have Been a
Fool.wav

     Pre-gap length  0:00:00.80

     Peak level 90.3 %
     Track quality 99.9 %
     Test CRC 887CBA68
     Copy CRC 887CBA68
     Accurately ripped (confidence 22)  [6A363941]
     Copy OK

Track 10

     Filename C:EACripAl Jarreau - Heart's Horizon - 10 - More Love.wav

     Peak level 78.2 %
     Track quality 100.0 %
     Test CRC E7B4E5A0
     Copy CRC E7B4E5A0
     Accurately ripped (confidence 22)  [B8B8522A]
     Copy OK

Track 11

     Filename C:EACripAl Jarreau - Heart's Horizon - 11 - Killer Love.wav

     Pre-gap length  0:00:00.53

     Peak level 94.5 %
     Track quality 100.0 %
     Test CRC 886BE317
     Copy CRC 886BE317
     Accurately ripped (confidence 22)  [63F06F22]
     Copy OK

Track 12

     Filename C:EACripAl Jarreau - Heart's Horizon - 12 - Heart's Horizon.wav

     Pre-gap length  0:00:01.64

     Peak level 88.7 %
     Track quality 100.0 %
     Test CRC 18597405
     Copy CRC 18597405
     Accurately ripped (confidence 21)  [A7A05D59]
     Copy OK


All tracks accurately ripped

No errors occurred

End of status report

Comments