World`s biggest lossless archive
Artist
2014 0-9 z y x w v u t s r q p o n m l k j i h g f e d c b a

Nino Ferrer - Nino And Radiah Et Le Sud 1974 / Suite En Oeuf 1975 '1974

Bitrates:
FLAC:784 KbpsMP3:320 KbpsALAC:900 Kbps
ArtistNino Ferrer
Album name Nino And Radiah Et Le Sud 1974 / Suite En Oeuf 1975
Date 1974
GenreChanson
Play time 01:17:51
Format APE
Carrier CD
Bitrate 784 Kbps
Size 441.83 Mb
Status Checked    CUE+LOG OK
Price$3.53
Download album

For download albums, larger than 1GB, please use program "Download manager" or any other. For Windows or Mac.

Track list

1. (00:05:01) Nino Ferrer - South
2. (00:04:45) Nino Ferrer - Moses
3. (00:04:02) Nino Ferrer - Mint julep
4. (00:08:35) Nino Ferrer - HotToddy
5. (00:02:35) Nino Ferrer - Vomitation
6. (00:04:17) Nino Ferrer - The garden
7. (00:05:52) Nino Ferrer - Looking for you
8. (00:05:03) Nino Ferrer - New-York
9. (00:04:34) Nino Ferrer - Le Sud
10. (00:03:35) Nino Ferrer - Alcina de Jesus
11. (00:03:19) Nino Ferrer - Southern feeling
12. (00:03:02) Nino Ferrer - Daddy Tarzan
13. (00:04:38) Nino Ferrer - Blues des chiens
14. (21:59:28) Nino Ferrer - Chanson pour petit bout
15. (00:00:00) Nino Ferrer - Moon
16. (00:00:00) Nino Ferrer - Papagayo frog
17. (00:00:00) Nino Ferrer - Les morceaux de fer
18. (22:17:51) Nino Ferrer - Chanson pour Nathalie

Archive content

Nino Ferrer vol.3 Nino and Radiah et le Sud _ Suite en Oeuf/ - 0.00
Nino Ferrer vol.3 Nino and Radiah et le Sud _ Suite en Oeuf/cover.jpg - 0.03
Nino Ferrer vol.3 Nino and Radiah et le Sud _ Suite en Oeuf/Nino Ferrer - Nino and Radiah et le sud 1974 Suite en oeuf 1975.ape - 436.69
Nino Ferrer vol.3 Nino and Radiah et le Sud _ Suite en Oeuf/Nino Ferrer - Nino and Radiah et le sud 1974 Suite en oeuf 1975.cue - 0.00
Nino Ferrer vol.3 Nino and Radiah et le Sud _ Suite en Oeuf/Nino Ferrer - Nino and Radiah et le sud 1974 Suite en oeuf 1975.log - 0.00
Nino Ferrer vol.3 Nino and Radiah et le Sud _ Suite en Oeuf/Scans/ - 0.00
Nino Ferrer vol.3 Nino and Radiah et le Sud _ Suite en Oeuf/Scans/back.jpg - 0.34
Nino Ferrer vol.3 Nino and Radiah et le Sud _ Suite en Oeuf/Scans/booklet1.jpg - 1.06
Nino Ferrer vol.3 Nino and Radiah et le Sud _ Suite en Oeuf/Scans/booklet2.jpg - 0.59
Nino Ferrer vol.3 Nino and Radiah et le Sud _ Suite en Oeuf/Scans/booklet3.jpg - 0.61
Nino Ferrer vol.3 Nino and Radiah et le Sud _ Suite en Oeuf/Scans/booklet4.jpg - 1.19
Nino Ferrer vol.3 Nino and Radiah et le Sud _ Suite en Oeuf/Scans/booklet5.jpg - 0.58
Nino Ferrer vol.3 Nino and Radiah et le Sud _ Suite en Oeuf/Scans/booklet6.jpg - 0.40
Nino Ferrer vol.3 Nino and Radiah et le Sud _ Suite en Oeuf/Scans/cd.jpg - 0.35
Show Log file:
Exact Audio Copy V0.99 prebeta 4 from 23. January 2008

EAC extraction logfile from 20. April 2009, 11:08

Nino Ferrer / Nino and Radiah et le sud 1974 / Suite en oeuf 1975

Used drive  : HL-DT-STDVDRAM GSA-H10N   Adapter: 0  ID: 0

Read mode               : Secure
Utilize accurate stream : Yes
Defeat audio cache      : Yes
Make use of C2 pointers : No

Read offset correction                      : 667
Overread into Lead-In and Lead-Out          : No
Fill up missing offset samples with silence : Yes
Delete leading and trailing silent blocks   : No
Null samples used in CRC calculations       : Yes
Used interface                              : Native Win32 interface for Win NT
& 2000

Used output format : Internal WAV Routines
Sample format      : 44.100 Hz; 16 Bit; Stereo


TOC of the extracted CD

     Track |   Start  |  Length  | Start sector | End sector 
    ---------------------------------------------------------
        1  |  0:00.33 |  5:00.50 |        33    |    22582   
        2  |  5:01.08 |  4:45.12 |     22583    |    43969   
        3  |  9:46.20 |  4:01.65 |     43970    |    62109   
        4  | 13:48.10 |  8:36.73 |     62110    |   100882   
        5  | 22:25.08 |  2:35.57 |    100883    |   112564   
        6  | 25:00.65 |  4:16.10 |    112565    |   131774   
        7  | 29:17.00 |  5:52.28 |    131775    |   158202   
        8  | 35:09.28 |  5:03.02 |    158203    |   180929   
        9  | 40:12.30 |  4:37.03 |    180930    |   201707   
       10  | 44:49.33 |  3:36.10 |    201708    |   217917   
       11  | 48:25.43 |  3:20.32 |    217918    |   232949   
       12  | 51:46.00 |  3:02.33 |    232950    |   246632   
       13  | 54:48.33 |  4:40.00 |    246633    |   267632   
       14  | 59:28.33 |  1:19.50 |    267633    |   273607   
       15  | 60:48.08 |  4:58.00 |    273608    |   295957   
       16  | 65:46.08 |  3:15.65 |    295958    |   310647   
       17  | 69:01.73 |  5:36.12 |    310648    |   335859   
       18  | 74:38.10 |  3:12.48 |    335860    |   350307   


Range status and errors

Selected range

     Filename C:Documents and SettingssbessonBureauNino Ferrer - Nino and Radiah
et le sud 1974   Suite en oeuf 1975.wav

     Peak level 97.7 %
     Range quality 100.0 %
     Copy CRC 94DC1708
     Copy OK

No errors occurred

 
AccurateRip summary
 
Track  1  not present in database
Track  2  not present in database
Track  3  not present in database
Track  4  not present in database
Track  5  not present in database
Track  6  not present in database
Track  7  not present in database
Track  8  not present in database
Track  9  not present in database
Track 10  not present in database
Track 11  not present in database
Track 12  not present in database
Track 13  not present in database
Track 14  not present in database
Track 15  not present in database
Track 16  not present in database
Track 17  not present in database
Track 18  not present in database
 
None of the tracks are present in the AccurateRip database

End of status report

Comments