World`s biggest lossless archive
Artist
2014 0-9 z y x w v u t s r q p o n m l k j i h g f e d c b a

Kenny - The Singles Collection Plus... '2004

Bitrates:
FLAC:1440 KbpsMP3:320 KbpsALAC:900 Kbps
ArtistKenny
Album name The Singles Collection Plus...
Date 2004
GenreRock
Play time 00:59:40
Format APE
Media CD
Bitrate 1440 Kbps
Size 314.25 Mb
Status Checked    CUE+LOG OK
Price$2.51
Download album

For download albums, larger than 1GB, please use program "Download manager" or any other. For Windows or Mac.

Track list

1. (00:02:35) Kenny - The Bump
2. (00:03:14) Kenny - Forget the Janes the Jeans & the might have beens
3. (00:03:26) Kenny - Fancy Pants
4. (00:03:14) Kenny - Iґm a winner
5. (00:03:49) Kenny - Baby, I Love you ok
6. (00:03:16) Kenny - Sound of Super K
7. (00:02:59) Kenny - Julie Anne
8. (00:03:02) Kenny - Dancin Feet
9. (00:03:43) Kenny - Nice to have you home
10. (00:02:42) Kenny - Happiness Melissa
11. (00:03:31) Kenny - Forever & Ever
12. (00:03:16) Kenny - Hey Mr.Dream Seller
13. (00:04:02) Kenny - Glad Glad Glad
14. (00:02:57) Kenny - Hot Lips
15. (00:03:25) Kenny - Bangin my head against a brick wall
16. (00:02:36) Kenny - Read headed lady
17. (00:03:19) Kenny - Alone together
18. (00:04:34) Kenny - (Your Love has lifted me) Higher & Higher

Archive content

Kenny - The Singles Collection plus/ - 0.00
Kenny - The Singles Collection plus/Kenny - The Singles Collection plus... cd.jpg - 0.13
Kenny - The Singles Collection plus/Kenny - The Singles Collection plus... front.jpg - 0.28
Kenny - The Singles Collection plus/Kenny - The Singles Collection plus....cue - 0.00
Kenny - The Singles Collection plus/Kenny - The Singles Collection plus....log - 0.00
Kenny - The Singles Collection plus/Kenny - The Singles Collection plus....ape - 313.22
Kenny - The Singles Collection plus/Kenny - The Singles Collection plus... inlay.jpg - 0.15
Kenny - The Singles Collection plus/Kenny - The Singles Collection plus... inside.jpg - 0.27
Kenny - The Singles Collection plus/Kenny - The Singles Collection plus... back.jpg - 0.19
Show Log file:
Exact Audio Copy V0.99 prebeta 4 from 23. January 2008

Отчёт EAC об извлечении, выполненном 11.
февраля 2010, 19:14

Kenny / The Singles Collection plus...

Дисковод: _NEC    DVD_RW ND-4570A   Adapter: 1  ID: 0

Режим чтения                 : Достоверность
Использование точного потока : Да
Отключение кэша аудио        : Да
Использование указателей C2  : Нет

Коррекция смещения при чтении                     :
48
Способность читать области Lead-in и Lead-out     :
Нет
Заполнение пропущенных сэмплов тишиной       
    : Да
Удаление блоков с тишиной в начале и конце   
    : Нет
При вычислениях CRC использовались нулевые
сэмплы : Да
Интерфейс                                         :
Встроенный Win32-интерфейс для Win NT/2000

Выходной формат : Внутренние WAV-операции
Формат сэмплов  : 44.100 Гц; 16 бит; стерео


TOC извлечённого CD

     Трек |   Старт  | Длительность | Начальный
сектор | Конечный сектор 
    ---------------------------------------------------------------------
       1  |  0:00.00 |    2:35.56   |           0      |      11680      
       2  |  2:35.56 |    3:14.05   |       11681      |      26235      
       3  |  5:49.61 |    3:25.34   |       26236      |      41644      
       4  |  9:15.20 |    3:14.02   |       41645      |      56196      
       5  | 12:29.22 |    3:49.26   |       56197      |      73397      
       6  | 16:18.48 |    3:15.50   |       73398      |      88072      
       7  | 19:34.23 |    2:59.40   |       88073      |     101537      
       8  | 22:33.63 |    3:01.40   |      101538      |     115152      
       9  | 25:35.28 |    3:43.42   |      115153      |     131919      
      10  | 29:18.70 |    2:41.27   |      131920      |     144021      
      11  | 32:00.22 |    3:30.53   |      144022      |     159824      
      12  | 35:31.00 |    3:16.51   |      159825      |     174575      
      13  | 38:47.51 |    4:01.70   |      174576      |     192720      
      14  | 42:49.46 |    2:56.37   |      192721      |     205957      
      15  | 45:46.08 |    3:25.12   |      205958      |     221344      
      16  | 49:11.20 |    2:36.48   |      221345      |     233092      
      17  | 51:47.68 |    3:18.73   |      233093      |     248015      
      18  | 55:06.66 |    4:32.63   |      248016      |     268478      


Характеристики диапазона извлечения и
сообщения об ошибках

Выбранный диапазон

     Имя файла G:Torrents1Kenny - The Singles Collection plus....wav

     Пиковый уровень 89.3 %
     Качество диапазона 100.0 %
     CRC копии EEC53D35
     Копирование... OK

Ошибок не произошло

Конец отчёта

Comments