World`s biggest lossless archive
Artist
2014 0-9 z y x w v u t s r q p o n m l k j i h g f e d c b a

A Tribe Called Quest - The Low End Theory '1991

Bitrates:
FLAC:819 KbpsMP3:320 KbpsALAC:900 Kbps
ArtistA Tribe Called Quest
Album name The Low End Theory
Date 1991
GenreHip-Hop
Play time 00:48:07
Format FLAC
Media CD
Bitrate 819 Kbps
Size 261.22 Mb
Status Checked    CUE+LOG OK
Price$2.09
Download album

For download albums, larger than 1GB, please use program "Download manager" or any other. For Windows or Mac.

Track list

1. (00:03:53) A Tribe Called Quest - Excursions
2. (00:03:37) A Tribe Called Quest - Buggin' Out
3. (00:00:00) A Tribe Called Quest - Rap Promoter
4. (00:03:38) A Tribe Called Quest - Butter
5. (00:03:58) A Tribe Called Quest - Verses From The Abstract
6. (00:03:53) A Tribe Called Quest - Show Business
7. (00:04:18) A Tribe Called Quest - Vibes And Stuff
8. (00:02:53) A Tribe Called Quest - The Infamous Date Rape
9. (00:03:36) A Tribe Called Quest - Check The Rhime
10. (00:00:00) A Tribe Called Quest - Everything Is Fair
11. (00:04:09) A Tribe Called Quest - Jazz (We've Got)
12. (00:00:00) A Tribe Called Quest - Sky Pager
13. (00:00:00) A Tribe Called Quest - What?
14. (00:03:54) A Tribe Called Quest - Scenario

Archive content

A Tribe Called Quest - The Low End Theory/ - 0.00
A Tribe Called Quest - The Low End Theory/00 - A Tribe Called Quest - The Low End Theory (non-compliant).CUE - 0.00
A Tribe Called Quest - The Low End Theory/00 - A Tribe Called Quest - The Low End Theory.log - 0.00
A Tribe Called Quest - The Low End Theory/01 - A Tribe Called Quest - Excursions.flac - 22.40
A Tribe Called Quest - The Low End Theory/02 - A Tribe Called Quest - Buggin' Out.flac - 21.25
A Tribe Called Quest - The Low End Theory/03 - A Tribe Called Quest - Rap Promoter.flac - 12.98
A Tribe Called Quest - The Low End Theory/04 - A Tribe Called Quest - Butter.flac - 18.93
A Tribe Called Quest - The Low End Theory/05 - A Tribe Called Quest - Verses From The Abstract.flac - 19.61
A Tribe Called Quest - The Low End Theory/06 - A Tribe Called Quest - Show Business.flac - 20.90
A Tribe Called Quest - The Low End Theory/07 - A Tribe Called Quest - Vibes And Stuff.flac - 21.66
A Tribe Called Quest - The Low End Theory/08 - A Tribe Called Quest - The Infamous Date Rape.flac - 15.58
A Tribe Called Quest - The Low End Theory/09 - A Tribe Called Quest - Check The Rhime.flac - 19.45
A Tribe Called Quest - The Low End Theory/10 - A Tribe Called Quest - Everything Is Fair.flac - 16.36
A Tribe Called Quest - The Low End Theory/11 - A Tribe Called Quest - Jazz (We've Got).flac - 24.08
A Tribe Called Quest - The Low End Theory/12 - A Tribe Called Quest - Sky Pager.flac - 12.22
A Tribe Called Quest - The Low End Theory/13 - A Tribe Called Quest - What.flac - 11.62
A Tribe Called Quest - The Low End Theory/14 - A Tribe Called Quest - Scenario.flac - 24.23
A Tribe Called Quest - The Low End Theory/tracklist.txt - 0.00
Show Log file:
EAC extraction logfile from 27. April 2006, 18:45 for CD
A Tribe Called Quest / The Low End Theory

Used drive  : LITE-ON LTR-52327S   Adapter: 3  ID: 1
Read mode   : Secure with NO C2, accurate stream, disable cache
Read offset correction : 6
Overread into Lead-In and Lead-Out : No

Used output format : E:Program FilesFLACflac.exe   (User Defined Encoder)
                     320 kBit/s
                     Additional command line options : -V -8 -T "artist=%a" -T
"title=%t" -T "album=%g" -T "date=%y" -T "tracknumber=%n" -T "genre=%m" %s

Other options      : 
    Fill up missing offset samples with silence : Yes
    Delete leading and trailing silent blocks : No
    Native Win32 interface for Win NT & 2000


Track  1
     Filename E:A Tribe Called Quest - Discography (FLAC)The Low End Theory1 -
A Tribe Called Quest - Excursions.wav

     Pre-gap length  0:00:02.00

     Peak level 99.4 %
     Track quality 99.9 %
     Test CRC 219FA843
     Copy CRC 219FA843
     Copy OK

Track  2
     Filename E:A Tribe Called Quest - Discography (FLAC)The Low End Theory2 -
A Tribe Called Quest - Buggin' Out.wav

     Pre-gap length  0:00:00.66

     Peak level 99.5 %
     Track quality 100.0 %
     Test CRC 507158C8
     Copy CRC 507158C8
     Copy OK

Track  3
     Filename E:A Tribe Called Quest - Discography (FLAC)The Low End Theory3 -
A Tribe Called Quest - Rap Promoter.wav

     Pre-gap length  0:00:00.04

     Peak level 100.0 %
     Track quality 100.0 %
     Test CRC 2B75F413
     Copy CRC 2B75F413
     Copy OK

Track  4
     Filename E:A Tribe Called Quest - Discography (FLAC)The Low End Theory4 -
A Tribe Called Quest - Butter.wav

     Peak level 80.4 %
     Track quality 100.0 %
     Test CRC 3FDE122D
     Copy CRC 3FDE122D
     Copy OK

Track  5
     Filename E:A Tribe Called Quest - Discography (FLAC)The Low End Theory5 -
A Tribe Called Quest - Verses From The Abstract.wav

     Pre-gap length  0:00:00.16

     Peak level 99.9 %
     Track quality 100.0 %
     Test CRC C5A2FE58
     Copy CRC C5A2FE58
     Copy OK

Track  6
     Filename E:A Tribe Called Quest - Discography (FLAC)The Low End Theory6 -
A Tribe Called Quest - Show Business.wav

     Pre-gap length  0:00:00.02

     Peak level 90.2 %
     Track quality 99.9 %
     Test CRC AD0E520D
     Copy CRC AD0E520D
     Copy OK

Track  7
     Filename E:A Tribe Called Quest - Discography (FLAC)The Low End Theory7 -
A Tribe Called Quest - Vibes And Stuff.wav

     Pre-gap length  0:00:00.04

     Peak level 94.3 %
     Track quality 100.0 %
     Test CRC ED534FE1
     Copy CRC ED534FE1
     Copy OK

Track  8
     Filename E:A Tribe Called Quest - Discography (FLAC)The Low End Theory8 -
A Tribe Called Quest - The Infamous Date Rape.wav

     Pre-gap length  0:00:00.33

     Peak level 100.0 %
     Track quality 100.0 %
     Test CRC 5F28A418
     Copy CRC 5F28A418
     Copy OK

Track  9
     Filename E:A Tribe Called Quest - Discography (FLAC)The Low End Theory9 -
A Tribe Called Quest - Check The Rhime.wav

     Pre-gap length  0:00:00.06

     Peak level 99.6 %
     Track quality 100.0 %
     Test CRC 92BC4C94
     Copy CRC 92BC4C94
     Copy OK

Track 10
     Filename E:A Tribe Called Quest - Discography (FLAC)The Low End Theory10 -
A Tribe Called Quest - Everything Is Fair.wav

     Pre-gap length  0:00:00.06

     Peak level 96.1 %
     Track quality 100.0 %
     Test CRC AA052AE9
     Copy CRC AA052AE9
     Copy OK

Track 11
     Filename E:A Tribe Called Quest - Discography (FLAC)The Low End Theory11 -
A Tribe Called Quest - Jazz (We've Got).wav

     Peak level 91.4 %
     Track quality 100.0 %
     Test CRC 506C19E5
     Copy CRC 506C19E5
     Copy OK

Track 12
     Filename E:A Tribe Called Quest - Discography (FLAC)The Low End Theory12 -
A Tribe Called Quest - Sky Pager.wav

     Pre-gap length  0:00:00.04

     Peak level 88.9 %
     Track quality 100.0 %
     Test CRC 8606390D
     Copy CRC 8606390D
     Copy OK

Track 13
     Filename E:A Tribe Called Quest - Discography (FLAC)The Low End Theory13 -
A Tribe Called Quest - What .wav

     Peak level 88.8 %
     Track quality 100.0 %
     Test CRC F59FA438
     Copy CRC F59FA438
     Copy OK

Track 14
     Filename E:A Tribe Called Quest - Discography (FLAC)The Low End Theory14 -
A Tribe Called Quest - Scenario.wav

     Peak level 77.2 %
     Track quality 100.0 %
     Test CRC 576B3905
     Copy CRC 576B3905
     Copy OK

No errors occured


End of status report

Comments