World`s biggest lossless archive
Artist
2014 0-9 z y x w v u t s r q p o n m l k j i h g f e d c b a

Juno Reactor - Hotaka (CDS) '2002

Bitrates:
FLAC:943 KbpsMP3:320 KbpsALAC:900 Kbps
ArtistJuno Reactor
Album name Hotaka (CDS)
Date 2002
GenreElectronic
Play time 00:28:20
Format FLAC
Carrier CD
Bitrate 943 Kbps
Size 172.78 Mb
Status Checked    CUE+LOG OK
Price$1.38
Download album

For download albums, larger than 1GB, please use program "Download manager" or any other. For Windows or Mac.

Track list

1. (00:03:34) Juno Reactor - Hotaka Radio Edit
2. (00:08:19) Juno Reactor - Hotaka 12' Dance version
3. (00:07:59) Juno Reactor - Hotaka Thomas P. Heckman remix
4. (00:08:24) Juno Reactor - Hotaka Der Dritte Raum remix

Archive content

04 - Hotaka (Kris Kylven Remix).flac - 47.76
cover.jpg - 0.01
Hotaka.CUE - 0.00
Hotaka.log - 0.00
Juno Reactor - Hotaka.m3u - 0.00
Juno Reactor - Hotaka.txt - 0.00
01 - Hotaka (Radio Edit).flac - 24.23
02 - Hotaka.flac - 52.93
03 - Hotaka (KLOQ Remix).flac - 47.86
Show Log file:
EAC extraction logfile from 16. May 2006, 13:31 for CD
Juno Reactor / Hotaka

Used drive  : _NEC    DVD_RW ND-3520A   Adapter: 1  ID: 1
Read mode   : Secure with C2, accurate stream, NO disable cache
Read offset correction : 48
Overread into Lead-In and Lead-Out : No

Used output format : C:Program FilesFLACflac.exe   (User Defined Encoder)
                     32 kBit/s
                     Additional command line options : -6 -V -T "artist=%a" -T
"title=%t" -T "album=%g" -T "date=%y" -T "tracknumber=%n" -T "genre=%m" -T
comment="%e" -T "comment=EAC (Secure Mode)" %s

Other options      : 
    Fill up missing offset samples with silence : Yes
    Delete leading and trailing silent blocks : No
    Native Win32 interface for Win NT & 2000


Track  1
     Filename L:Juno Reactor - HotakaJuno Reactor - Hotaka - 01 - Hotaka Radio
Edit.wav

     Pre-gap length  0:00:02.00

     Peak level 98.0 %
     Track quality 100.0 %
     Test CRC 01A4825B
     Copy CRC 01A4825B
     Copy OK

Track  2
     Filename L:Juno Reactor - HotakaJuno Reactor - Hotaka - 02 - Hotaka 12'
Dance version.wav

     Pre-gap length  0:00:00.96

     Peak level 98.0 %
     Track quality 100.0 %
     Test CRC CD29D26C
     Copy CRC CD29D26C
     Copy OK

Track  3
     Filename L:Juno Reactor - HotakaJuno Reactor - Hotaka - 03 - Hotaka Thomas
P. Heckman remix.wav

     Pre-gap length  0:00:01.49

     Peak level 100.0 %
     Track quality 100.0 %
     Test CRC 252480C0
     Copy CRC 252480C0
     Copy OK

Track  4
     Filename L:Juno Reactor - HotakaJuno Reactor - Hotaka - 04 - Hotaka Der
Dritte Raum remix.wav

     Pre-gap length  0:00:00.89

     Peak level 100.0 %
     Track quality 100.0 %
     Test CRC 2EAA1868
     Copy CRC 2EAA1868
     Copy OK

No errors occured


End of status report

Comments