World`s biggest lossless archive
Artist
2014 0-9 z y x w v u t s r q p o n m l k j i h g f e d c b a

Al Bano & Romina Power - Vincerai (Their Greatest Hits) '1991

Bitrates:
FLAC:924 KbpsMP3:320 KbpsALAC:900 Kbps
ArtistAl Bano & Romina Power
Album name Vincerai (Their Greatest Hits)
Date 1991
GenrePop
Play time 01:03:53
Format FLAC
Media CD
Bitrate 924 Kbps
Size 428.21 Mb
Status Checked    CUE+LOG OK
Price$3.43
Download album

For download albums, larger than 1GB, please use program "Download manager" or any other. For Windows or Mac.

Track list

1. (00:05:07) Al Bano & Romina Power - Vincerai
2. (00:04:20) Al Bano & Romina Power - Tu Soltanto Tu
3. (00:04:13) Al Bano & Romina Power - We'll Live It All Again
4. (00:03:16) Al Bano & Romina Power - Dialogo
5. (00:03:40) Al Bano & Romina Power - Ci Sara
6. (00:03:53) Al Bano & Romina Power - Makassar
7. (00:04:00) Al Bano & Romina Power - Sempre, Sempre
8. (00:04:04) Al Bano & Romina Power - Cara Terra Mia
9. (00:04:36) Al Bano & Romina Power - Il Poeta (Yunus Emrи)
10. (00:03:30) Al Bano & Romina Power - Che Angelo Sei
11. (00:04:31) Al Bano & Romina Power - Sharazan
12. (00:02:58) Al Bano & Romina Power - Prima Notte D'Amore
13. (00:03:24) Al Bano & Romina Power - Felicita
14. (00:03:53) Al Bano & Romina Power - Nel Sole
15. (00:04:27) Al Bano & Romina Power - Liberta
16. (00:03:32) Al Bano & Romina Power - Nessun Dorma

Archive content

Scans/ - 0.00
Scans/back.jpg - 0.34
Scans/booklet1.jpg - 0.91
Scans/booklet2.jpg - 0.60
Scans/booklet3.jpg - 0.63
Scans/booklet4.jpg - 0.57
Scans/booklet5.jpg - 0.56
Scans/booklet6.jpg - 0.54
Scans/booklet7.jpg - 0.57
Scans/cd.jpg - 0.28
Scans/front.png - 0.83
Al Bano & Romina Power - Vincerai.cue - 0.00
Al Bano & Romina Power - Vincerai.flac - 422.38
Al Bano & Romina Power - Vincerai.log - 0.00
cover.jpg - 0.04
Show Log file:
Exact Audio Copy V0.99 prebeta 5 from 4. May 2009

EAC extraction logfile from 9. July 2009, 21:15

Al Bano & Romina Power / Vincerai

Used drive  : ASUS    DRW-1608P   Adapter: 2  ID: 0

Read mode               : Secure
Utilize accurate stream : Yes
Defeat audio cache      : Yes
Make use of C2 pointers : No

Read offset correction                      : 48
Overread into Lead-In and Lead-Out          : No
Fill up missing offset samples with silence : Yes
Delete leading and trailing silent blocks   : No
Null samples used in CRC calculations       : Yes
Used interface                              : Installed external ASPI interface

Used output format              : User Defined Encoder
Selected bitrate                : 896 kBit/s
Quality                         : High
Add ID3 tag                     : No
Command line compressor         : C:Program FilesExact Audio CopyFlacflac.exe
Additional command line options : -8 -V %s %d


TOC of the extracted CD

     Track |   Start  |  Length  | Start sector | End sector 
    ---------------------------------------------------------
        1  |  0:00.00 |  5:09.12 |         0    |    23186   
        2  |  5:09.12 |  4:21.43 |     23187    |    42804   
        3  |  9:30.55 |  4:14.62 |     42805    |    61916   
        4  | 13:45.42 |  3:17.45 |     61917    |    76736   
        5  | 17:03.12 |  3:43.40 |     76737    |    93501   
        6  | 20:46.52 |  3:54.50 |     93502    |   111101   
        7  | 24:41.27 |  4:02.53 |    111102    |   129304   
        8  | 28:44.05 |  4:07.37 |    129305    |   147866   
        9  | 32:51.42 |  4:38.08 |    147867    |   168724   
       10  | 37:29.50 |  3:31.20 |    168725    |   184569   
       11  | 41:00.70 |  4:31.55 |    184570    |   204949   
       12  | 45:32.50 |  2:59.52 |    204950    |   218426   
       13  | 48:32.27 |  3:26.48 |    218427    |   233924   
       14  | 51:59.00 |  3:54.45 |    233925    |   251519   
       15  | 55:53.45 |  4:27.22 |    251520    |   271566   
       16  | 60:20.67 |  3:31.55 |    271567    |   287446   


Range status and errors

Selected range

     Filename F:Al Bano & Romina Power - Vincerai (Their Greatest Hits)Al Bano &
Romina Power - Vincerai.wav

     Peak level 99.8 %
     Range quality 100.0 %
     Test CRC 5BBD154C
     Copy CRC 5BBD154C
     Copy OK

No errors occurred

End of status report

Comments