World`s biggest lossless archive
Artist
2014 0-9 z y x w v u t s r q p o n m l k j i h g f e d c b a

Sarah Brightman - Fly (1996 ReIssue) '1995

Bitrates:
FLAC:908 KbpsMP3:320 KbpsALAC:900 Kbps
ArtistSarah Brightman
Album name Fly (1996 ReIssue)
Date 1995
GenreVocal
Play time 00:52:52
Format APE
Media CD
Bitrate 908 Kbps
Size 343.84 Mb
Status Checked    CUE+LOG OK
Price$2.75
Download album

For download albums, larger than 1GB, please use program "Download manager" or any other. For Windows or Mac.

Track list

1. (00:04:07) Sarah Brightman - Time To Say Goodbye (Con Te Partiro) (with Andrea Bocelli)
2. (00:02:56) Sarah Brightman - The Fly
3. (00:05:10) Sarah Brightman - Why
4. (00:03:39) Sarah Brightman - Murder In Mairyland Park
5. (00:03:45) Sarah Brightman - How Can Heaven Love Me (Feat. Chris Thompson)
6. (00:06:34) Sarah Brightman - A Question Of Honour
7. (00:04:24) Sarah Brightman - Ghost In The Machinery
8. (00:06:49) Sarah Brightman - You Take My Breath Away
9. (00:04:23) Sarah Brightman - Something In The Air (Feat. Tom Jones)
10. (00:04:03) Sarah Brightman - Heaven Is Here
11. (00:04:10) Sarah Brightman - I Loved You
12. (00:02:52) Sarah Brightman - Fly

Archive content

cover.jpg - 0.06
Fly Cover.jpg - 0.07
Sarah Brightman - Fly.ape - 343.69
Sarah Brightman - Fly.cue - 0.00
Sarah Brightman - Fly.log - 0.00
Show Log file:
Exact Audio Copy V0.99 prebeta 4 from 23. January 2008

Отчёт EAC об извлечении, выполненном 9. мая 2008,
17:27

Sarah Brightman / Fly

Дисковод: HP      DVD Writer 840e   Adapter: 8  ID: 0

Режим чтения                 : Достоверность
Использование точного потока : Да
Отключение кэша аудио        : Да
Использование указателей C2  : Нет

Коррекция смещения при чтении                     :
102
Способность читать области Lead-in и Lead-out     :
Нет
Заполнение пропущенных сэмплов тишиной       
    : Да
Удаление блоков с тишиной в начале и конце   
    : Нет
При вычислениях CRC использовались нулевые
сэмплы : Нет
Интерфейс                                         :
Встроенный Win32-интерфейс для Win NT/2000

Выходной формат : Внутренние WAV-операции
Формат сэмплов  : 44.100 Гц; 16 бит; стерео


TOC извлечённого CD

     Трек |   Старт  | Длительность | Начальный
сектор | Конечный сектор 
    ---------------------------------------------------------------------
       1  |  0:00.00 |    4:07.25   |           0      |      18549      
       2  |  4:07.25 |    2:55.55   |       18550      |      31729      
       3  |  7:03.05 |    5:10.32   |       31730      |      55011      
       4  | 12:13.37 |    3:39.10   |       55012      |      71446      
       5  | 15:52.47 |    3:44.50   |       71447      |      88296      
       6  | 19:37.22 |    6:34.23   |       88297      |     117869      
       7  | 26:11.45 |    4:23.67   |      117870      |     137661      
       8  | 30:35.37 |    6:49.08   |      137662      |     168344      
       9  | 37:24.45 |    4:22.67   |      168345      |     188061      
      10  | 41:47.37 |    4:03.00   |      188062      |     206286      
      11  | 45:50.37 |    4:10.05   |      206287      |     225041      
      12  | 50:00.42 |    2:51.28   |      225042      |     237894      


Характеристики диапазона извлечения и
сообщения об ошибках

Выбранный диапазон

     Имя файла E:EAC ripsSarah Brightman - Fly 1996 ReIssueSarah
Brightman - Fly.wav

     Пиковый уровень 100.0 %
     Качество диапазона 100.0 %
     CRC копии 2419FE48
     Копирование... OK

Ошибок не произошло

 
AccurateRip: сводка
 
Трек  1  точное извлечение (доверие 3)  [381525AD]
Трек  2  точное извлечение (доверие 3)  [1503ED2F]
Трек  3  точное извлечение (доверие 3)  [D41CBA67]
Трек  4  точное извлечение (доверие 3)  [2707FE8D]
Трек  5  точное извлечение (доверие 3)  [137C1044]
Трек  6  точное извлечение (доверие 3)  [06061BAF]
Трек  7  точное извлечение (доверие 3)  [69483AA1]
Трек  8  точное извлечение (доверие 3)  [8D887CB9]
Трек  9  точное извлечение (доверие 3)  [6C1ABE12]
Трек 10  точное извлечение (доверие 3)  [90A896A6]
Трек 11  точное извлечение (доверие 3)  [82A80EF4]
Трек 12  точное извлечение (доверие 3)  [72842C70]
 
Все треки извлечены точно

Конец отчёта

Comments