World`s biggest lossless archive
Artist
2014 0-9 z y x w v u t s r q p o n m l k j i h g f e d c b a

Julio Iglesias - The Golden Hits (CD3) '2011

Bitrates:
FLAC:951 KbpsMP3:320 KbpsALAC:900 Kbps
ArtistJulio Iglesias
Album name The Golden Hits (CD3)
Date 2011
GenrePop
Play time 00:42:02
Format FLAC
Media CD
Bitrate 951 Kbps
Size 301.02 Mb
Status Checked    CUE+LOG OK
Price$2.41
Download album

For download albums, larger than 1GB, please use program "Download manager" or any other. For Windows or Mac.

Track list

1. (00:03:49) Julio Iglesias - Donner
2. (00:03:23) Julio Iglesias - De vous a moi
3. (00:04:17) Julio Iglesias - Quelque chose de France
4. (00:03:58) Julio Iglesias - Partir quand meme (with Francoise Hardy)
5. (00:03:25) Julio Iglesias - Des femmes sur le toit du monde
6. (00:04:15) Julio Iglesias - Je me sens bien chez vous
7. (00:03:54) Julio Iglesias - Bandoneon
8. (00:02:56) Julio Iglesias - L'ombre de toi
9. (00:02:52) Julio Iglesias - L'existence se danse
10. (00:05:03) Julio Iglesias - Mal acostumbrado
11. (00:03:55) Julio Iglesias - Te invito

Archive content

Scans/ - 0.00
Scans/Back.jpg - 3.00
Scans/CD3.jpg - 0.63
Scans/Front.jpg - 2.27
Scans/Inlay.jpg - 10.10
Julio Iglesias - The golden hits CD3.cue - 0.00
Julio Iglesias - The golden hits CD3.flac - 286.07
Julio Iglesias - The golden hits CD3.log - 0.01
Show Log file:
Exact Audio Copy V1.0 beta 1 from 15. November 2010

EAC extraction logfile from 21. August 2011, 11:34

Julio Iglesias / The golden hits CD3

Used drive  : HL-DT-STDVDRAM GH10N   Adapter: 3  ID: 0

Read mode               : Secure
Utilize accurate stream : Yes
Defeat audio cache      : Yes
Make use of C2 pointers : No

Read offset correction                      : 667
Overread into Lead-In and Lead-Out          : No
Fill up missing offset samples with silence : Yes
Delete leading and trailing silent blocks   : No
Null samples used in CRC calculations       : Yes
Used interface                              : Native Win32 interface for Win NT
& 2000

Used output format              : User Defined Encoder
Selected bitrate                : 1024 kBit/s
Quality                         : High
Add ID3 tag                     : No
Command line compressor         : C:Program FilesFLACflac.exe
Additional command line options : -V -5 -T "artist=%a" -T "title=%t" -T
"album=%g" -T "date=%y" -T "tracknumber=%n" -T "genre=%m" -5 %s


TOC of the extracted CD

     Track |   Start  |  Length  | Start sector | End sector 
    ---------------------------------------------------------
        1  |  0:00.00 |  3:51.50 |         0    |    17374   
        2  |  3:51.50 |  3:24.19 |     17375    |    32693   
        3  |  7:15.69 |  4:18.25 |     32694    |    52068   
        4  | 11:34.19 |  3:59.49 |     52069    |    70042   
        5  | 15:33.68 |  3:25.71 |     70043    |    85488   
        6  | 18:59.64 |  4:16.08 |     85489    |   104696   
        7  | 23:15.72 |  3:55.45 |    104697    |   122366   
        8  | 27:11.42 |  2:58.14 |    122367    |   135730   
        9  | 30:09.56 |  2:53.50 |    135731    |   148755   
       10  | 33:03.31 |  5:04.32 |    148756    |   171587   
       11  | 38:07.63 |  3:54.33 |    171588    |   189170   


Range status and errors

Selected range

     Filename U:EAC RipsJulio Iglesias - The Golden Hits (4CD)Julio Golden Hits
CD3Julio Iglesias - The golden hits CD3.wav

     Peak level 100.0 %
     Extraction speed 0.3 X
     Range quality 100.0 %
     Test CRC 3EB7529B
     Copy CRC 3EB7529B
     Copy OK

No errors occurred

 
AccurateRip summary
 
Track  1  cannot be verified as accurate (confidence 3)  [E424AB3D], AccurateRip
returned [ECA6A049]
Track  2  cannot be verified as accurate (confidence 3)  [EC5CC88F], AccurateRip
returned [447255BF]
Track  3  cannot be verified as accurate (confidence 3)  [DAAE2563], AccurateRip
returned [55BBDAD3]
Track  4  cannot be verified as accurate (confidence 3)  [3C175A8D], AccurateRip
returned [98C86249]
Track  5  cannot be verified as accurate (confidence 3)  [275002E4], AccurateRip
returned [8B6AE8C4]
Track  6  cannot be verified as accurate (confidence 3)  [23F839A1], AccurateRip
returned [94F2A4DD]
Track  7  cannot be verified as accurate (confidence 3)  [8E7385BA], AccurateRip
returned [963871BA]
Track  8  cannot be verified as accurate (confidence 3)  [48E70E25], AccurateRip
returned [89222FB9]
Track  9  cannot be verified as accurate (confidence 3)  [A055EC46], AccurateRip
returned [58938952]
Track 10  cannot be verified as accurate (confidence 3)  [4327CEF3], AccurateRip
returned [67EE6887]
Track 11  cannot be verified as accurate (confidence 3)  [55AE6E5C], AccurateRip
returned [65D64ED0]
 
No tracks could be verified as accurate
You may have a different pressing from the one(s) in the database

End of status report

Comments