World`s biggest lossless archive
Artist
2014 0-9 z y x w v u t s r q p o n m l k j i h g f e d c b a

Savage Garden - Truly Madly Deeply [CDM] '1998

Bitrates:
FLAC:972 KbpsMP3:320 KbpsALAC:900 Kbps
ArtistSavage Garden
Album name Truly Madly Deeply [CDM]
Date 1998
GenreEasy Listening
Play time 00:18:13
Format FLAC
Carrier CD
Bitrate 972 Kbps
Size 125.29 Mb
Status Checked    CUE+LOG OK
Price$1.00
Download album

For download albums, larger than 1GB, please use program "Download manager" or any other. For Windows or Mac.

Track list

1. (00:04:35) Savage Garden - Truly Madly Deeply (Album Version)
2. (00:04:36) Savage Garden - Truly Madly Deeply (Australian Version)
3. (00:04:10) Savage Garden - This Side Of Me
4. (00:04:37) Savage Garden - Love Can Move You

Archive content

Scans/ - 0.00
Scans/Disc.jpg - 0.54
Scans/Front + Inside.jpg - 1.93
01 - Truly Madly Deeply [Album Version].flac - 30.18
02 - Truly Madly Deeply [Australian Version].flac - 31.85
03 - This Side Of Me.flac - 27.57
04 - Love Can Move You.flac - 33.20
audiochecker.log - 0.00
folder.jpg - 0.05
Savage Garden - Truly Madly Deeply [Single] {Non-Compliant}.cue - 0.00
Savage Garden - Truly Madly Deeply [Single].cue - 0.00
Savage Garden - Truly Madly Deeply [Single].log - 0.00
Show Log file:
Exact Audio Copy V0.99 prebeta 4 from 23. January 2008

EAC extraction logfile from 4. September 2008, 23:36

Savage Garden / Truly Madly Deeply

Used drive  : PLEXTOR CD-R   PREMIUM   Adapter: 1  ID: 0

Read mode               : Secure
Utilize accurate stream : Yes
Defeat audio cache      : Yes
Make use of C2 pointers : No

Read offset correction                      : 30
Overread into Lead-In and Lead-Out          : Yes
Fill up missing offset samples with silence : Yes
Delete leading and trailing silent blocks   : No
Null samples used in CRC calculations       : Yes
Used interface                              : Native Win32 interface for Win NT
& 2000
Gap handling                                : Appended to previous track

Used output format              : User Defined Encoder
Selected bitrate                : 768 kBit/s
Quality                         : High
Add ID3 tag                     : No
Command line compressor         : E:Program FilesExact Audio CopyFLACFLAC.EXE
Additional command line options : -8 -V -T "ARTIST=%a" -T "TITLE=%t" -T
"ALBUM=%g" -T "DATE=%y" -T "TRACKNUMBER=%n" -T "TOTALTRACKS=%x" -T "GENRE=%m" -T
"ALBUMARTIST=%v" -T "ALBUM ARTIST=%v" -T "COMMENT=EAC V0.99 prebeta 4, Secure
Mode, Test & Copy, Accurat


TOC of the extracted CD

     Track |   Start  |  Length  | Start sector | End sector 
    ---------------------------------------------------------
        1  |  0:00.00 |  4:37.00 |         0    |    20774   
        2  |  4:37.00 |  4:38.00 |     20775    |    41624   
        3  |  9:15.00 |  4:12.00 |     41625    |    60524   
        4  | 13:27.00 |  4:46.30 |     60525    |    82004   


Track  1

     Filename R:Pedro

Comments