World`s biggest lossless archive
Artist
2014 0-9 z y x w v u t s r q p o n m l k j i h g f e d c b a

M2M - The Day You Went Away: The Best of M2M '2003

Bitrates:
FLAC:1063 KbpsMP3:320 KbpsALAC:900 Kbps
ArtistM2M
Album name The Day You Went Away: The Best of M2M
Date 2003
GenrePop
Play time 01:16:01
Format FLAC
Carrier CD
Bitrate 1063 Kbps
Size 529.92 Mb
Status Checked    CUE+LOG OK
Price$4.24
Download album

For download albums, larger than 1GB, please use program "Download manager" or any other. For Windows or Mac.

Track list

1. (00:00:00) M2M - The Day You Went Away
2. (00:00:01) M2M - Mirror Mirror
3. (00:00:01) M2M - Pretty Boy
4. (00:00:01) M2M - Don't Say You Love Me
5. (00:00:01) M2M - Everything
6. (00:00:01) M2M - Everything You Do
7. (00:00:01) M2M - Girl In Your Dreams
8. (00:00:01) M2M - What You Do About Me
9. (00:00:01) M2M - Don't (Acoustic)
10. (00:00:01) M2M - Wanna Be Where You Are
11. (00:00:01) M2M - Not To Me
12. (00:00:01) M2M - Is You
13. (00:00:01) M2M - Wait For Me
14. (00:00:01) M2M - Jennifer (Acoustic)
15. (00:00:01) M2M - Love Left For Me (Acoustic)
16. (00:00:01) M2M - Pretty Boy (Mandarin Version)
17. (00:00:01) M2M - Everything (Acoustic)
18. (00:00:01) M2M - Don't Say You Love Me (Tin Tin Out Remix)
19. (00:00:01) M2M - Todo Lo Que Haces
20. (00:03:43) M2M - Mirror Mirror (Power Dance Mix)

Archive content

M2M - 2003 - The Best Of M2M [F]/01 - The Day You Went Away.flac - 26.21
M2M - 2003 - The Best Of M2M [F]/02 - Mirror Mirror.flac - 24.30
M2M - 2003 - The Best Of M2M [F]/03 - Pretty Boy.flac - 34.42
M2M - 2003 - The Best Of M2M [F]/04 - Don't Say You Love Me.flac - 27.98
M2M - 2003 - The Best Of M2M [F]/05 - Everything.flac - 22.79
M2M - 2003 - The Best Of M2M [F]/06 - Everything You Do.flac - 29.84
M2M - 2003 - The Best Of M2M [F]/07 - Girl In Your Dreams.flac - 27.94
M2M - 2003 - The Best Of M2M [F]/08 - What You Do About Me.flac - 24.67
M2M - 2003 - The Best Of M2M [F]/09 - Don't (Acoustic).flac - 22.36
M2M - 2003 - The Best Of M2M [F]/10 - Wanna Be Where You Are.flac - 21.71
M2M - 2003 - The Best Of M2M [F]/11 - Not To Me.flac - 21.08
M2M - 2003 - The Best Of M2M [F]/12 - Is You.flac - 28.27
M2M - 2003 - The Best Of M2M [F]/13 - Wait For Me.flac - 19.55
M2M - 2003 - The Best Of M2M [F]/14 - Jennifer (Acoustic).flac - 21.00
M2M - 2003 - The Best Of M2M [F]/15 - Love Left For Me (Acoustic).flac - 24.51
M2M - 2003 - The Best Of M2M [F]/16 - Pretty Boy (Mandarin Version).flac - 33.80
M2M - 2003 - The Best Of M2M [F]/17 - Everything (Acoustic).flac - 24.25
M2M - 2003 - The Best Of M2M [F]/18 - Don't Say You Love Me (Tin Tin Out Remix).flac - 26.16
M2M - 2003 - The Best Of M2M [F]/19 - Todo Lo Que Haces.flac - 28.14
M2M - 2003 - The Best Of M2M [F]/20 - Mirror Mirror (Power Dance Mix).flac - 40.91
M2M - 2003 - The Best Of M2M [F]/cover.jpg - 0.15
M2M - 2003 - The Best Of M2M [F]/M2M - The Best Of M2M.log - 0.01
M2M - 2003 - The Best Of M2M [F]/M2M - The Best Of M2M.m3u - 0.00
M2M - 2003 - The Best Of M2M [F]/The Best Of M2M.cue - 0.00
M2M - 2003 - The Best Of M2M [F]/ - 0.00
Show Log file:
Exact Audio Copy V0.99 prebeta 5 from 4. May 2009

EAC extraction logfile from 18. June 2009, 2:46

M2M / The Best Of M2M

Used drive  : ATAPI   BD  O  DH4O1S   Adapter: 0  ID: 2

Read mode               : Secure
Utilize accurate stream : Yes
Defeat audio cache      : Yes
Make use of C2 pointers : No

Read offset correction                      : 6
Overread into Lead-In and Lead-Out          : No
Fill up missing offset samples with silence : Yes
Delete leading and trailing silent blocks   : No
Null samples used in CRC calculations       : Yes
Used interface                              : Native Win32 interface for Win NT
& 2000
Gap handling                                : Appended to previous track

Used output format              : User Defined Encoder
Selected bitrate                : 768 kBit/s
Quality                         : High
Add ID3 tag                     : No
Command line compressor         : C:Program FilesExact Audio CopyFLACFLAC.EXE
Additional command line options : -6 -V -T "ARTIST=%a" -T "TITLE=%t" -T
"ALBUM=%g" -T "DATE=%y" -T "TRACKNUMBER=%n" -T "GENRE=%m" -T "COMMENT=%e" %s -o
%d


TOC of the extracted CD

     Track |   Start  |  Length  | Start sector | End sector 
    ---------------------------------------------------------
        1  |  0:00.00 |  3:43.42 |         0    |    16766   
        2  |  3:43.42 |  3:21.53 |     16767    |    31894   
        3  |  7:05.20 |  4:40.37 |     31895    |    52931   
        4  | 11:45.57 |  3:46.53 |     52932    |    69934   
        5  | 15:32.35 |  3:07.00 |     69935    |    83959   
        6  | 18:39.35 |  4:05.55 |     83960    |   102389   
        7  | 22:45.15 |  3:40.27 |    102390    |   118916   
        8  | 26:25.42 |  3:21.10 |    118917    |   134001   
        9  | 29:46.52 |  3:30.30 |    134002    |   149781   
       10  | 33:17.07 |  3:26.35 |    149782    |   165266   
       11  | 36:43.42 |  3:09.15 |    165267    |   179456   
       12  | 39:52.57 |  4:01.45 |    179457    |   197576   
       13  | 43:54.27 |  3:06.55 |    197577    |   211581   
       14  | 47:01.07 |  2:53.13 |    211582    |   224569   
       15  | 49:54.20 |  4:14.35 |    224570    |   243654   
       16  | 54:08.55 |  4:39.40 |    243655    |   264619   
       17  | 58:48.20 |  3:41.17 |    264620    |   281211   
       18  | 62:29.37 |  3:33.08 |    281212    |   297194   
       19  | 66:02.45 |  4:02.62 |    297195    |   315406   
       20  | 70:05.32 |  5:56.00 |    315407    |   342106   


Track  1

     Filename C:FLACM2M - 2003 - The Best Of M2M�1 - The Day You Went
Away.wav

     Pre-gap length  0:00:02.00

     Peak level 93.2 %
     Track quality 100.0 %
     Test CRC E2E55005
     Copy CRC E2E55005
     Track not present in AccurateRip database
     Copy OK

Track  2

     Filename C:FLACM2M - 2003 - The Best Of M2M�2 - Mirror Mirror.wav

     Pre-gap length  0:00:01.42

     Peak level 98.7 %
     Track quality 100.0 %
     Test CRC 9CACC59A
     Copy CRC 9CACC59A
     Track not present in AccurateRip database
     Copy OK

Track  3

     Filename C:FLACM2M - 2003 - The Best Of M2M�3 - Pretty Boy.wav

     Pre-gap length  0:00:01.40

     Peak level 93.2 %
     Track quality 100.0 %
     Test CRC 7A48051D
     Copy CRC 7A48051D
     Track not present in AccurateRip database
     Copy OK

Track  4

     Filename C:FLACM2M - 2003 - The Best Of M2M�4 - Don't Say You Love
Me.wav

     Pre-gap length  0:00:01.42

     Peak level 93.2 %
     Track quality 100.0 %
     Test CRC B356BFE9
     Copy CRC B356BFE9
     Track not present in AccurateRip database
     Copy OK

Track  5

     Filename C:FLACM2M - 2003 - The Best Of M2M�5 - Everything.wav

     Pre-gap length  0:00:01.43

     Peak level 99.8 %
     Track quality 100.0 %
     Test CRC 08DA9F45
     Copy CRC 08DA9F45
     Track not present in AccurateRip database
     Copy OK

Track  6

     Filename C:FLACM2M - 2003 - The Best Of M2M�6 - Everything You Do.wav

     Pre-gap length  0:00:01.40

     Peak level 93.2 %
     Track quality 99.9 %
     Test CRC 599A9894
     Copy CRC 599A9894
     Track not present in AccurateRip database
     Copy OK

Track  7

     Filename C:FLACM2M - 2003 - The Best Of M2M�7 - Girl In Your Dreams.wav

     Pre-gap length  0:00:01.40

     Peak level 85.0 %
     Track quality 100.0 %
     Test CRC C4611DCD
     Copy CRC C4611DCD
     Track not present in AccurateRip database
     Copy OK

Track  8

     Filename C:FLACM2M - 2003 - The Best Of M2M�8 - What You Do About Me.wav

     Pre-gap length  0:00:01.42

     Peak level 99.8 %
     Track quality 100.0 %
     Test CRC 12BDA0A9
     Copy CRC 12BDA0A9
     Track not present in AccurateRip database
     Copy OK

Track  9

     Filename C:FLACM2M - 2003 - The Best Of M2M�9 - Don't (Acoustic).wav

     Pre-gap length  0:00:01.40

     Peak level 98.8 %
     Track quality 100.0 %
     Test CRC D92BFEA5
     Copy CRC D92BFEA5
     Track not present in AccurateRip database
     Copy OK

Track 10

     Filename C:FLACM2M - 2003 - The Best Of M2M10 - Wanna Be Where You Are.wav

     Pre-gap length  0:00:01.42

     Peak level 98.8 %
     Track quality 100.0 %
     Test CRC 3B250CDF
     Copy CRC 3B250CDF
     Track not present in AccurateRip database
     Copy OK

Track 11

     Filename C:FLACM2M - 2003 - The Best Of M2M11 - Not To Me.wav

     Pre-gap length  0:00:01.40

     Peak level 98.8 %
     Track quality 100.0 %
     Test CRC 0586ACE8
     Copy CRC 0586ACE8
     Track not present in AccurateRip database
     Copy OK

Track 12

     Filename C:FLACM2M - 2003 - The Best Of M2M12 - Is You.wav

     Pre-gap length  0:00:01.42

     Peak level 97.7 %
     Track quality 100.0 %
     Test CRC A6CFE379
     Copy CRC A6CFE379
     Track not present in AccurateRip database
     Copy OK

Track 13

     Filename C:FLACM2M - 2003 - The Best Of M2M13 - Wait For Me.wav

     Pre-gap length  0:00:01.40

     Peak level 97.6 %
     Track quality 100.0 %
     Test CRC 11D4F419
     Copy CRC 11D4F419
     Track not present in AccurateRip database
     Copy OK

Track 14

     Filename C:FLACM2M - 2003 - The Best Of M2M14 - Jennifer (Acoustic).wav

     Pre-gap length  0:00:01.40

     Peak level 97.6 %
     Track quality 100.0 %
     Test CRC F9422107
     Copy CRC F9422107
     Track not present in AccurateRip database
     Copy OK

Track 15

     Filename C:FLACM2M - 2003 - The Best Of M2M15 - Love Left For Me
(Acoustic).wav

     Pre-gap length  0:00:01.40

     Peak level 97.6 %
     Track quality 100.0 %
     Test CRC CA92ACB0
     Copy CRC CA92ACB0
     Track not present in AccurateRip database
     Copy OK

Track 16

     Filename C:FLACM2M - 2003 - The Best Of M2M16 - Pretty Boy (Mandarin
Version).wav

     Pre-gap length  0:00:01.43

     Peak level 97.7 %
     Track quality 100.0 %
     Test CRC 3ACCE810
     Copy CRC 3ACCE810
     Track not present in AccurateRip database
     Copy OK

Track 17

     Filename C:FLACM2M - 2003 - The Best Of M2M17 - Everything (Acoustic).wav

     Pre-gap length  0:00:01.40

     Peak level 97.6 %
     Track quality 100.0 %
     Test CRC 8A0451FC
     Copy CRC 8A0451FC
     Track not present in AccurateRip database
     Copy OK

Track 18

     Filename C:FLACM2M - 2003 - The Best Of M2M18 - Don't Say You Love Me (Tin
Tin Out Remix).wav

     Pre-gap length  0:00:01.40

     Peak level 98.7 %
     Track quality 100.0 %
     Test CRC 90A34515
     Copy CRC 90A34515
     Track not present in AccurateRip database
     Copy OK

Track 19

     Filename C:FLACM2M - 2003 - The Best Of M2M19 - Todo Lo Que Haces.wav

     Pre-gap length  0:00:01.40

     Peak level 98.7 %
     Track quality 100.0 %
     Test CRC 7723F38B
     Copy CRC 7723F38B
     Track not present in AccurateRip database
     Copy OK

Track 20

     Filename C:FLACM2M - 2003 - The Best Of M2M20 - Mirror Mirror (Power Dance
Mix).wav

     Pre-gap length  0:00:01.42

     Peak level 98.8 %
     Track quality 99.9 %
     Test CRC 6C2EA39A
     Copy CRC 6C2EA39A
     Track not present in AccurateRip database
     Copy OK


None of the tracks are present in the AccurateRip database

No errors occurred

End of status report

Comments