World`s biggest lossless archive
Artist
2014 0-9 z y x w v u t s r q p o n m l k j i h g f e d c b a

U2 - The Joshua Tree (2CD, Remastered) '2007

Bitrates:
FLAC:988 KbpsMP3:320 KbpsALAC:900 Kbps
ArtistU2
Album name The Joshua Tree (2CD, Remastered)
Date 2007
GenreRock
Play time 01:47:21
Format FLAC
Carrier CD
Bitrate 988 Kbps
Size 616.25 Mb
Status Checked    CUE+LOG OK
Price$4.93
Download album

For download albums, larger than 1GB, please use program "Download manager" or any other. For Windows or Mac.

Track list

CD #1
1. (00:05:36) U2 - Where The Streets Have No Name
2. (00:00:00) U2 - I Still Haven't Found What I'm Looking For
3. (00:00:00) U2 - With Or Without You
4. (00:00:00) U2 - Bullet The Blue Sky
5. (00:04:17) U2 - Running To Stand Still
6. (00:00:00) U2 - Red Hill Mining Town
7. (00:00:00) U2 - In God's Country
8. (00:00:00) U2 - Trip Through Your Wires
9. (00:00:00) U2 - One Tree Hill
10. (00:04:13) U2 - Exit
11. (00:04:56) U2 - Mothers Of The Disappeared
CD #2
1. (00:04:34) U2 - Luminous Times (Hold On To Love)
2. (00:04:50) U2 - Walk To The Water
3. (00:03:13) U2 - Spanish Eyes
4. (00:04:30) U2 - Deep In The Heart
5. (00:04:38) U2 - Silver And Gold
6. (00:03:04) U2 - Sweetest Thing
7. (00:04:03) U2 - Race Against Time
8. (00:04:47) U2 - Where The Streets Have No Name (Single Edit)
9. (00:04:43) U2 - Silver And Gold (Sun City)
10. (00:03:52) U2 - Beautiful Ghost - Introduction To Songs Of Experience
11. (00:04:04) U2 - Wave Of Sorrow (Birdland)
12. (00:04:56) U2 - Desert Of Our Love
13. (00:04:04) U2 - Rise Up
14. (00:51:02) U2 - Drunk Chicken - America

Archive content

U2 - The Joshua Tree (1987) [FLAC] (2-CD) {2007 Remaster} {20th Anniversary Super Deluxe Ltd. Ed.}/ - 0.00
U2 - The Joshua Tree (1987) [FLAC] (2-CD) {2007 Remaster} {20th Anniversary Super Deluxe Ltd. Ed.}/01 - Where The Streets Have No Name.flac - 30.85
U2 - The Joshua Tree (1987) [FLAC] (2-CD) {2007 Remaster} {20th Anniversary Super Deluxe Ltd. Ed.}/02 - I Still Haven't Found What I'm Looking For.flac - 27.30
U2 - The Joshua Tree (1987) [FLAC] (2-CD) {2007 Remaster} {20th Anniversary Super Deluxe Ltd. Ed.}/03 - With Or Without You.flac - 27.68
U2 - The Joshua Tree (1987) [FLAC] (2-CD) {2007 Remaster} {20th Anniversary Super Deluxe Ltd. Ed.}/04 - Bullet The Blue Sky.flac - 31.47
U2 - The Joshua Tree (1987) [FLAC] (2-CD) {2007 Remaster} {20th Anniversary Super Deluxe Ltd. Ed.}/05 - Running To Stand Still.flac - 18.69
U2 - The Joshua Tree (1987) [FLAC] (2-CD) {2007 Remaster} {20th Anniversary Super Deluxe Ltd. Ed.}/06 - Red Hill Mining Town.flac - 32.17
U2 - The Joshua Tree (1987) [FLAC] (2-CD) {2007 Remaster} {20th Anniversary Super Deluxe Ltd. Ed.}/07 - In God's Country.flac - 19.04
U2 - The Joshua Tree (1987) [FLAC] (2-CD) {2007 Remaster} {20th Anniversary Super Deluxe Ltd. Ed.}/08 - Trip Through Your Wires.flac - 24.96
U2 - The Joshua Tree (1987) [FLAC] (2-CD) {2007 Remaster} {20th Anniversary Super Deluxe Ltd. Ed.}/09 - One Tree Hill.flac - 30.18
U2 - The Joshua Tree (1987) [FLAC] (2-CD) {2007 Remaster} {20th Anniversary Super Deluxe Ltd. Ed.}/10 - Exit.flac - 21.86
U2 - The Joshua Tree (1987) [FLAC] (2-CD) {2007 Remaster} {20th Anniversary Super Deluxe Ltd. Ed.}/11 - Mothers Of The Disappeared.flac - 24.18
U2 - The Joshua Tree (1987) [FLAC] (2-CD) {2007 Remaster} {20th Anniversary Super Deluxe Ltd. Ed.}/Bonus Audio CD/ - 0.00
U2 - The Joshua Tree (1987) [FLAC] (2-CD) {2007 Remaster} {20th Anniversary Super Deluxe Ltd. Ed.}/Bonus Audio CD/01 - Luminous Times (Hold On To Love).flac - 23.98
U2 - The Joshua Tree (1987) [FLAC] (2-CD) {2007 Remaster} {20th Anniversary Super Deluxe Ltd. Ed.}/Bonus Audio CD/02 - Walk To The Water.flac - 27.36
U2 - The Joshua Tree (1987) [FLAC] (2-CD) {2007 Remaster} {20th Anniversary Super Deluxe Ltd. Ed.}/Bonus Audio CD/03 - Spanish Eyes.flac - 20.80
U2 - The Joshua Tree (1987) [FLAC] (2-CD) {2007 Remaster} {20th Anniversary Super Deluxe Ltd. Ed.}/Bonus Audio CD/04 - Deep In The Heart.flac - 23.37
U2 - The Joshua Tree (1987) [FLAC] (2-CD) {2007 Remaster} {20th Anniversary Super Deluxe Ltd. Ed.}/Bonus Audio CD/05 - Silver And Gold.flac - 28.51
U2 - The Joshua Tree (1987) [FLAC] (2-CD) {2007 Remaster} {20th Anniversary Super Deluxe Ltd. Ed.}/Bonus Audio CD/06 - Sweetest Thing.flac - 20.32
U2 - The Joshua Tree (1987) [FLAC] (2-CD) {2007 Remaster} {20th Anniversary Super Deluxe Ltd. Ed.}/Bonus Audio CD/07 - Race Against Time.flac - 19.31
U2 - The Joshua Tree (1987) [FLAC] (2-CD) {2007 Remaster} {20th Anniversary Super Deluxe Ltd. Ed.}/Bonus Audio CD/08 - Where The Streets Have No Name (Single Edit).flac - 26.94
U2 - The Joshua Tree (1987) [FLAC] (2-CD) {2007 Remaster} {20th Anniversary Super Deluxe Ltd. Ed.}/Bonus Audio CD/09 - Silver And Gold (Sun City).flac - 28.34
U2 - The Joshua Tree (1987) [FLAC] (2-CD) {2007 Remaster} {20th Anniversary Super Deluxe Ltd. Ed.}/Bonus Audio CD/10 - Beautiful Ghost - Introduction To Songs Of Experience.flac - 18.20
U2 - The Joshua Tree (1987) [FLAC] (2-CD) {2007 Remaster} {20th Anniversary Super Deluxe Ltd. Ed.}/Bonus Audio CD/11 - Wave Of Sorrow (Birdland).flac - 22.91
U2 - The Joshua Tree (1987) [FLAC] (2-CD) {2007 Remaster} {20th Anniversary Super Deluxe Ltd. Ed.}/Bonus Audio CD/12 - Desert Of Our Love.flac - 31.16
U2 - The Joshua Tree (1987) [FLAC] (2-CD) {2007 Remaster} {20th Anniversary Super Deluxe Ltd. Ed.}/Bonus Audio CD/13 - Rise Up.flac - 26.96
U2 - The Joshua Tree (1987) [FLAC] (2-CD) {2007 Remaster} {20th Anniversary Super Deluxe Ltd. Ed.}/Bonus Audio CD/14 - Drunk Chicken - America.flac - 9.21
U2 - The Joshua Tree (1987) [FLAC] (2-CD) {2007 Remaster} {20th Anniversary Super Deluxe Ltd. Ed.}/Bonus Audio CD/fingerprint.txt - 0.00
U2 - The Joshua Tree (1987) [FLAC] (2-CD) {2007 Remaster} {20th Anniversary Super Deluxe Ltd. Ed.}/Bonus Audio CD/The Joshua Tree (Bonus Audio CD).log - 0.01
U2 - The Joshua Tree (1987) [FLAC] (2-CD) {2007 Remaster} {20th Anniversary Super Deluxe Ltd. Ed.}/Bonus Audio CD/The Joshua Tree (Bonus Audio CD)_non_compliant.CUE - 0.00
U2 - The Joshua Tree (1987) [FLAC] (2-CD) {2007 Remaster} {20th Anniversary Super Deluxe Ltd. Ed.}/Bonus Audio CD/The Joshua Tree (Bonus Audio CD)_single_wav_file.CUE - 0.00
U2 - The Joshua Tree (1987) [FLAC] (2-CD) {2007 Remaster} {20th Anniversary Super Deluxe Ltd. Ed.}/Bonus Audio CD/U2 - The Joshua Tree (Bonus Audio CD) (flac).m3u - 0.00
U2 - The Joshua Tree (1987) [FLAC] (2-CD) {2007 Remaster} {20th Anniversary Super Deluxe Ltd. Ed.}/Bonus Audio CD/U2 - The Joshua Tree (Bonus Audio CD).m3u - 0.00
U2 - The Joshua Tree (1987) [FLAC] (2-CD) {2007 Remaster} {20th Anniversary Super Deluxe Ltd. Ed.}/Combined.log - 0.01
U2 - The Joshua Tree (1987) [FLAC] (2-CD) {2007 Remaster} {20th Anniversary Super Deluxe Ltd. Ed.}/fingerprint.txt - 0.00
U2 - The Joshua Tree (1987) [FLAC] (2-CD) {2007 Remaster} {20th Anniversary Super Deluxe Ltd. Ed.}/Front_small.jpg - 0.07
U2 - The Joshua Tree (1987) [FLAC] (2-CD) {2007 Remaster} {20th Anniversary Super Deluxe Ltd. Ed.}/info.txt - 0.01
U2 - The Joshua Tree (1987) [FLAC] (2-CD) {2007 Remaster} {20th Anniversary Super Deluxe Ltd. Ed.}/Package Sticker.jpg - 0.38
U2 - The Joshua Tree (1987) [FLAC] (2-CD) {2007 Remaster} {20th Anniversary Super Deluxe Ltd. Ed.}/The Joshua Tree (2007 Remaster).log - 0.00
U2 - The Joshua Tree (1987) [FLAC] (2-CD) {2007 Remaster} {20th Anniversary Super Deluxe Ltd. Ed.}/The Joshua Tree (2007 Remaster)_non_compliant.CUE - 0.00
U2 - The Joshua Tree (1987) [FLAC] (2-CD) {2007 Remaster} {20th Anniversary Super Deluxe Ltd. Ed.}/The Joshua Tree (2007 Remaster)_single_wav_file.CUE - 0.00
U2 - The Joshua Tree (1987) [FLAC] (2-CD) {2007 Remaster} {20th Anniversary Super Deluxe Ltd. Ed.}/thumbnail.jpg - 0.01
U2 - The Joshua Tree (1987) [FLAC] (2-CD) {2007 Remaster} {20th Anniversary Super Deluxe Ltd. Ed.}/U2 - The Joshua Tree (2007 Remaster) (flac).m3u - 0.00
U2 - The Joshua Tree (1987) [FLAC] (2-CD) {2007 Remaster} {20th Anniversary Super Deluxe Ltd. Ed.}/U2 - The Joshua Tree (2007 Remaster).m3u - 0.00
Show Log file:
EAC extraction logfile from 20. November 2007, 15:09 for CD
U2 / The Joshua Tree (Bonus Audio CD)

Used drive  : DVDRW   IDE 16X   Adapter: 2  ID: 1
Read mode   : Secure with NO C2, accurate stream, disable cache
Read offset correction : 12
Overread into Lead-In and Lead-Out : No

Used output format : C:Program FilesFLACflac.exe   (User Defined Encoder)
                     320 kBit/s
                     Additional command line options : -8 -V -T "ARTIST=%a" -T
"TITLE=%t" -T "ALBUM=%g" -T "DATE=%y" -T "TRACKNUMBER=%n" -T "GENRE=%m" -T
"COMMENT=EAC Flac 1.2.1 -8" %s

Other options      : 
    Fill up missing offset samples with silence : Yes
    Delete leading and trailing silent blocks : No
    Native Win32 interface for Win NT & 2000


Track  1
     Filename E:My Shared FilesU2 - The Joshua Tree (1987) [FLAC] (2-CD) {2007
Remaster} {20th Anniversary Super Deluxe Ltd. Ed.}Bonus Audio CD1 - Luminous
Times (Hold On To Love).wav

     Pre-gap length  0:00:02.00

     Peak level 99.4 %
     Track quality 99.9 %
     Test CRC C4949DB6
     Copy CRC C4949DB6
     Copy OK

Track  2
     Filename E:My Shared FilesU2 - The Joshua Tree (1987) [FLAC] (2-CD) {2007
Remaster} {20th Anniversary Super Deluxe Ltd. Ed.}Bonus Audio CD2 - Walk To The
Water.wav

     Pre-gap length  0:00:00.28

     Peak level 99.2 %
     Track quality 99.9 %
     Test CRC C1C35EC0
     Copy CRC C1C35EC0
     Copy OK

Track  3
     Filename E:My Shared FilesU2 - The Joshua Tree (1987) [FLAC] (2-CD) {2007
Remaster} {20th Anniversary Super Deluxe Ltd. Ed.}Bonus Audio CD3 - Spanish
Eyes.wav

     Peak level 89.6 %
     Track quality 100.0 %
     Test CRC D9393A2B
     Copy CRC D9393A2B
     Copy OK

Track  4
     Filename E:My Shared FilesU2 - The Joshua Tree (1987) [FLAC] (2-CD) {2007
Remaster} {20th Anniversary Super Deluxe Ltd. Ed.}Bonus Audio CD4 - Deep In The
Heart.wav

     Pre-gap length  0:00:02.38

     Peak level 98.4 %
     Track quality 100.0 %
     Test CRC 2B6D44F3
     Copy CRC 2B6D44F3
     Copy OK

Track  5
     Filename E:My Shared FilesU2 - The Joshua Tree (1987) [FLAC] (2-CD) {2007
Remaster} {20th Anniversary Super Deluxe Ltd. Ed.}Bonus Audio CD5 - Silver And
Gold.wav

     Pre-gap length  0:00:00.51

     Peak level 99.6 %
     Track quality 100.0 %
     Test CRC 11067546
     Copy CRC 11067546
     Copy OK

Track  6
     Filename E:My Shared FilesU2 - The Joshua Tree (1987) [FLAC] (2-CD) {2007
Remaster} {20th Anniversary Super Deluxe Ltd. Ed.}Bonus Audio CD6 - Sweetest
Thing.wav

     Pre-gap length  0:00:00.13

     Peak level 99.3 %
     Track quality 100.0 %
     Test CRC 2CEBE1B1
     Copy CRC 2CEBE1B1
     Copy OK

Track  7
     Filename E:My Shared FilesU2 - The Joshua Tree (1987) [FLAC] (2-CD) {2007
Remaster} {20th Anniversary Super Deluxe Ltd. Ed.}Bonus Audio CD7 - Race
Against Time.wav

     Peak level 97.3 %
     Track quality 100.0 %
     Test CRC E1E3749B
     Copy CRC E1E3749B
     Copy OK

Track  8
     Filename E:My Shared FilesU2 - The Joshua Tree (1987) [FLAC] (2-CD) {2007
Remaster} {20th Anniversary Super Deluxe Ltd. Ed.}Bonus Audio CD8 - Where The
Streets Have No Name (Single Edit).wav

     Peak level 99.2 %
     Track quality 100.0 %
     Test CRC 83092D69
     Copy CRC 83092D69
     Copy OK

Track  9
     Filename E:My Shared FilesU2 - The Joshua Tree (1987) [FLAC] (2-CD) {2007
Remaster} {20th Anniversary Super Deluxe Ltd. Ed.}Bonus Audio CD9 - Silver And
Gold (Sun City).wav

     Pre-gap length  0:00:02.71

     Peak level 100.0 %
     Track quality 100.0 %
     Test CRC 9638AD06
     Copy CRC 9638AD06
     Copy OK

Track 10
     Filename E:My Shared FilesU2 - The Joshua Tree (1987) [FLAC] (2-CD) {2007
Remaster} {20th Anniversary Super Deluxe Ltd. Ed.}Bonus Audio CD10 - Beautiful
Ghost - Introduction To Songs Of Experience.wav

     Peak level 96.3 %
     Track quality 100.0 %
     Test CRC C507A225
     Copy CRC C507A225
     Copy OK

Track 11
     Filename E:My Shared FilesU2 - The Joshua Tree (1987) [FLAC] (2-CD) {2007
Remaster} {20th Anniversary Super Deluxe Ltd. Ed.}Bonus Audio CD11 - Wave Of
Sorrow (Birdland).wav

     Pre-gap length  0:00:04.09

     Peak level 99.7 %
     Track quality 100.0 %
     Test CRC A1C1EB69
     Copy CRC A1C1EB69
     Copy OK

Track 12
     Filename E:My Shared FilesU2 - The Joshua Tree (1987) [FLAC] (2-CD) {2007
Remaster} {20th Anniversary Super Deluxe Ltd. Ed.}Bonus Audio CD12 - Desert Of
Our Love.wav

     Pre-gap length  0:00:02.32

     Peak level 100.0 %
     Track quality 100.0 %
     Test CRC 81F9EDB5
     Copy CRC 81F9EDB5
     Copy OK

Track 13
     Filename E:My Shared FilesU2 - The Joshua Tree (1987) [FLAC] (2-CD) {2007
Remaster} {20th Anniversary Super Deluxe Ltd. Ed.}Bonus Audio CD13 - Rise
Up.wav

     Pre-gap length  0:00:02.38

     Peak level 100.0 %
     Track quality 99.9 %
     Test CRC 37BCECE3
     Copy CRC 37BCECE3
     Copy OK

Track 14
     Filename E:My Shared FilesU2 - The Joshua Tree (1987) [FLAC] (2-CD) {2007
Remaster} {20th Anniversary Super Deluxe Ltd. Ed.}Bonus Audio CD14 - Drunk
Chicken - America.wav

     Pre-gap length  0:00:03.09

     Peak level 87.7 %
     Track quality 100.0 %
     Test CRC 2CA054F5
     Copy CRC 2CA054F5
     Copy OK

No errors occured


End of status report

Comments