World`s biggest lossless archive
Artist
2014 0-9 z y x w v u t s r q p o n m l k j i h g f e d c b a

Big Pig - You Lucky People '1990

Bitrates:
FLAC:984 KbpsMP3:320 KbpsALAC:900 Kbps
ArtistBig Pig
Album name You Lucky People
Date 1990
GenreRock
Play time 00:50:20
Format FLAC
Carrier CD
Bitrate 984 Kbps
Size 336.45 Mb
Status Checked    CUE+LOG OK
Price$2.69
Download album

For download albums, larger than 1GB, please use program "Download manager" or any other. For Windows or Mac.

Other FLAC albums of Big Pig

Track list

1. (00:00:00) Big Pig - Justifier
2. (00:00:00) Big Pig - Taste
3. (00:00:00) Big Pig - King Of Nothing
4. (00:00:00) Big Pig - Question
5. (00:00:00) Big Pig - Suitcase
6. (00:00:00) Big Pig - Lost Reason
7. (00:00:00) Big Pig - Payment
8. (00:00:00) Big Pig - Take Control
9. (00:00:00) Big Pig - Hanging Tree
10. (00:00:00) Big Pig - Bound
11. (00:00:00) Big Pig - Legacy
12. (00:04:46) Big Pig - Book Of Dreams

Archive content

You Lucky People (1990) @ FLAC/ - 0.00
You Lucky People (1990) @ FLAC/Artwork/ - 0.00
You Lucky People (1990) @ FLAC/Artwork/Big Pig - You Lucky People - Booklet 1.jpg - 3.86
You Lucky People (1990) @ FLAC/Artwork/Big Pig - You Lucky People - Booklet 2.jpg - 3.55
You Lucky People (1990) @ FLAC/Big Pig - 01 - Justifier.flac - 31.07
You Lucky People (1990) @ FLAC/Big Pig - 02 - Taste.flac - 25.33
You Lucky People (1990) @ FLAC/Big Pig - 03 - King Of Nothing.flac - 24.12
You Lucky People (1990) @ FLAC/Big Pig - 04 - Question.flac - 26.97
You Lucky People (1990) @ FLAC/Big Pig - 05 - Suitcase.flac - 24.26
You Lucky People (1990) @ FLAC/Big Pig - 06 - Lost Reason.flac - 28.00
You Lucky People (1990) @ FLAC/Big Pig - 07 - Payment.flac - 30.86
You Lucky People (1990) @ FLAC/Big Pig - 08 - Take Control.flac - 24.21
You Lucky People (1990) @ FLAC/Big Pig - 09 - Hanging Tree.flac - 29.31
You Lucky People (1990) @ FLAC/Big Pig - 10 - Bound.flac - 27.85
You Lucky People (1990) @ FLAC/Big Pig - 11 - Legacy.flac - 28.98
You Lucky People (1990) @ FLAC/Big Pig - 12 - Book Of Dreams.flac - 28.18
You Lucky People (1990) @ FLAC/Big Pig - You Lucky People.cue - 0.00
You Lucky People (1990) @ FLAC/Big Pig - You Lucky People.log - 0.01
You Lucky People (1990) @ FLAC/Big Pig - You Lucky People.m3u - 0.00
You Lucky People (1990) @ FLAC/front_mini.jpg - 0.04
Show Log file:
Exact Audio Copy V1.0 beta 1 from 15. November 2010

EAC extraction logfile from 24. November 2010, 18:00

Big Pig / You Lucky People

Used drive  : HL-DT-STDVDRAM GH22NS50   Adapter: 2  ID: 1

Read mode               : Secure
Utilize accurate stream : Yes
Defeat audio cache      : No
Make use of C2 pointers : Yes

Read offset correction                      : 667
Overread into Lead-In and Lead-Out          : No
Fill up missing offset samples with silence : Yes
Delete leading and trailing silent blocks   : No
Null samples used in CRC calculations       : No
Used interface                              : Native Win32 interface for Win NT
& 2000
Gap handling                                : Not detected, thus appended to
previous track

Used output format              : User Defined Encoder
Selected bitrate                : 1024 kBit/s
Quality                         : High
Add ID3 tag                     : No
Command line compressor         : C:Program FilesExact Audio CopyFLACFLAC.EXE
Additional command line options : -6 -V -T "ARTIST=%a" -T "TITLE=%t" -T
"ALBUM=%g" -T "DATE=%y" -T "TRACKNUMBER=%n" -T "GENRE=%m" -T "COMMENT=%e"
%j--picture="%i"%j %s -o %d


TOC of the extracted CD

     Track |   Start  |  Length  | Start sector | End sector 
    ---------------------------------------------------------
        1  |  0:00.00 |  4:46.10 |         0    |    21459   
        2  |  4:46.10 |  3:56.15 |     21460    |    39174   
        3  |  8:42.25 |  3:39.60 |     39175    |    55659   
        4  | 12:22.10 |  4:35.65 |     55660    |    76349   
        5  | 16:58.00 |  3:46.37 |     76350    |    93336   
        6  | 20:44.37 |  3:58.38 |     93337    |   111224   
        7  | 24:43.00 |  4:45.37 |    111225    |   132636   
        8  | 29:28.37 |  3:38.13 |    132637    |   148999   
        9  | 33:06.50 |  4:38.20 |    149000    |   169869   
       10  | 37:44.70 |  4:06.67 |    169870    |   188386   
       11  | 41:51.62 |  4:18.23 |    188387    |   207759   
       12  | 46:10.10 |  4:11.17 |    207760    |   226601   


Track  1

     Filename C:Big Pig - 01 - Justifier.wav

     Peak level 83.2 %
     Extraction speed 12.3 X
     Track quality 100.0 %
     Copy CRC CDCE143D
     Accurately ripped (confidence 6)  [B6FCEEA8]
     Copy OK

Track  2

     Filename C:Big Pig - 02 - Taste.wav

     Peak level 95.4 %
     Extraction speed 20.7 X
     Track quality 100.0 %
     Copy CRC 87AD0779
     Accurately ripped (confidence 6)  [12AD051C]
     Copy OK

Track  3

     Filename C:Big Pig - 03 - King Of Nothing.wav

     Peak level 85.8 %
     Extraction speed 19.8 X
     Track quality 100.0 %
     Copy CRC 41BBFE3F
     Accurately ripped (confidence 6)  [4FD27973]
     Copy OK

Track  4

     Filename C:Big Pig - 04 - Question.wav

     Peak level 88.7 %
     Extraction speed 21.5 X
     Track quality 100.0 %
     Copy CRC B25AB66E
     Accurately ripped (confidence 6)  [30D4A082]
     Copy OK

Track  5

     Filename C:Big Pig - 05 - Suitcase.wav

     Peak level 99.8 %
     Extraction speed 22.3 X
     Track quality 100.0 %
     Copy CRC 083A9C5E
     Accurately ripped (confidence 6)  [00E2674C]
     Copy OK

Track  6

     Filename C:Big Pig - 06 - Lost Reason.wav

     Peak level 80.3 %
     Extraction speed 26.5 X
     Track quality 100.0 %
     Copy CRC AF278D49
     Accurately ripped (confidence 6)  [43FC1AAA]
     Copy OK

Track  7

     Filename C:Big Pig - 07 - Payment.wav

     Peak level 74.9 %
     Extraction speed 25.3 X
     Track quality 100.0 %
     Copy CRC 6727BECC
     Accurately ripped (confidence 6)  [605817D4]
     Copy OK

Track  8

     Filename C:Big Pig - 08 - Take Control.wav

     Peak level 64.1 %
     Extraction speed 25.0 X
     Track quality 100.0 %
     Copy CRC ABF0B451
     Accurately ripped (confidence 6)  [1E917FD7]
     Copy OK

Track  9

     Filename C:Big Pig - 09 - Hanging Tree.wav

     Peak level 85.4 %
     Extraction speed 25.9 X
     Track quality 99.9 %
     Copy CRC 2776DF29
     Accurately ripped (confidence 6)  [B9BC7DB8]
     Copy OK

Track 10

     Filename C:Big Pig - 10 - Bound.wav

     Peak level 85.4 %
     Extraction speed 26.5 X
     Track quality 100.0 %
     Copy CRC 9F0667E3
     Accurately ripped (confidence 6)  [319E428D]
     Copy OK

Track 11

     Filename C:Big Pig - 11 - Legacy.wav

     Peak level 71.5 %
     Extraction speed 32.7 X
     Track quality 100.0 %
     Copy CRC B0D86336
     Accurately ripped (confidence 6)  [7CC1B479]
     Copy OK

Track 12

     Filename C:Big Pig - 12 - Book Of Dreams.wav

     Peak level 86.8 %
     Extraction speed 33.9 X
     Track quality 100.0 %
     Copy CRC F6DF8FD3
     Accurately ripped (confidence 6)  [5821C603]
     Copy OK


All tracks accurately ripped

No errors occurred

End of status report

Comments