World`s biggest lossless archive
Artist
2014 0-9 z y x w v u t s r q p o n m l k j i h g f e d c b a

Jan Garbarek-ustad Fateh Ali Khan - Ragas And Sagas '1992

Ragas And Sagas
ArtistJan Garbarek-ustad Fateh Ali Khan
Album name Ragas And Sagas
Date 1992
GenreEthnic
Play time 00:52:13
Format FLAC
Media CD
Bitrate 687 Kbps
Size 259.87 Mb
Price$2.08
Download album

For download albums, larger than 1GB, please use program "Download manager" or any other. For Windows or Mac.

Track list

1. (00:08:40) Jan Garbarek-Ustad Fateh Ali Khan - Raga I
2. (00:05:26) Jan Garbarek-Ustad Fateh Ali Khan - Saga
3. (00:13:05) Jan Garbarek-Ustad Fateh Ali Khan - Raga II
4. (00:11:53) Jan Garbarek-Ustad Fateh Ali Khan - Raga III
5. (00:30:33) Jan Garbarek-Ustad Fateh Ali Khan - Raga IV

Archive content

Jan Garbarek _ Ustad Fateh Ali Khan - Ragas And Sagas (1992) / - 0.00
Jan Garbarek _ Ustad Fateh Ali Khan - Ragas And Sagas (1992) /Artwork/ - 0.00
Jan Garbarek _ Ustad Fateh Ali Khan - Ragas And Sagas (1992) /01 - Raga I.flac - 40.93
Jan Garbarek _ Ustad Fateh Ali Khan - Ragas And Sagas (1992) /02 - Saga.flac - 26.58
Jan Garbarek _ Ustad Fateh Ali Khan - Ragas And Sagas (1992) /03 - Raga II.flac - 64.64
Jan Garbarek _ Ustad Fateh Ali Khan - Ragas And Sagas (1992) /04 - Raga III.flac - 58.51
Jan Garbarek _ Ustad Fateh Ali Khan - Ragas And Sagas (1992) /05 - Raga IV.flac - 59.17
Jan Garbarek _ Ustad Fateh Ali Khan - Ragas And Sagas (1992) /Artwork/Back.jpg - 1.07
Jan Garbarek _ Ustad Fateh Ali Khan - Ragas And Sagas (1992) /Artwork/Fingerprint.txt - 0.00
Jan Garbarek _ Ustad Fateh Ali Khan - Ragas And Sagas (1992) /Artwork/FLAC - Image.cue - 0.00
Jan Garbarek _ Ustad Fateh Ali Khan - Ragas And Sagas (1992) /Artwork/FLAC - Noncompliant.cue - 0.00
Jan Garbarek _ Ustad Fateh Ali Khan - Ragas And Sagas (1992) /Artwork/FLAC - Playlist.m3u - 0.00
Jan Garbarek _ Ustad Fateh Ali Khan - Ragas And Sagas (1992) /Artwork/Cd.jpg - 0.63
Jan Garbarek _ Ustad Fateh Ali Khan - Ragas And Sagas (1992) /Artwork/Front.jpg - 2.98
Jan Garbarek _ Ustad Fateh Ali Khan - Ragas And Sagas (1992) /Artwork/Inside.jpg - 5.07
Jan Garbarek _ Ustad Fateh Ali Khan - Ragas And Sagas (1992) /Artwork/Test - EAC.jpg - 0.18
Jan Garbarek _ Ustad Fateh Ali Khan - Ragas And Sagas (1992) /Artwork/Test - GAP.jpg - 0.06
Jan Garbarek _ Ustad Fateh Ali Khan - Ragas And Sagas (1992) /Artwork/Test - FLAC.txt - 0.00
Jan Garbarek _ Ustad Fateh Ali Khan - Ragas And Sagas (1992) /Artwork/WAV - Noncompliant.cue - 0.00
Jan Garbarek _ Ustad Fateh Ali Khan - Ragas And Sagas (1992) /Artwork/WAV - Image.cue - 0.00
Jan Garbarek _ Ustad Fateh Ali Khan - Ragas And Sagas (1992) /Artwork/WAV - Playlist.m3u - 0.00
Jan Garbarek _ Ustad Fateh Ali Khan - Ragas And Sagas (1992) /FLAC - Playlist.m3u - 0.00
Jan Garbarek _ Ustad Fateh Ali Khan - Ragas And Sagas (1992) /Info.txt - 0.00
Jan Garbarek _ Ustad Fateh Ali Khan - Ragas And Sagas (1992) /Repacked By The Wildstrings (HQShare.Net).txt - 0.00
Jan Garbarek _ Ustad Fateh Ali Khan - Ragas And Sagas (1992) /Thumb.jpg - 0.03
Jan Garbarek _ Ustad Fateh Ali Khan - Ragas And Sagas (1992) /WAV - Noncompliant.cue - 0.00
Jan Garbarek _ Ustad Fateh Ali Khan - Ragas And Sagas (1992) /Jan Garbarek-Ustad Fateh Ali Khan - Ragas And Sagas.log - 0.00
Show Log file:
Exact Audio Copy V0.99 prebeta 4 from 23. January 2008

EAC extraction logfile from 7. September 2008, 13:09

Jan Garbarek-Ustad Fateh Ali Khan / Ragas And Sagas

Used drive  : PLEXTOR CD-R   PREMIUM2   Adapter: 1  ID: 1

Read mode               : Secure
Utilize accurate stream : Yes
Defeat audio cache      : Yes
Make use of C2 pointers : No

Read offset correction                      : 30
Overread into Lead-In and Lead-Out          : No
Fill up missing offset samples with silence : Yes
Delete leading and trailing silent blocks   : No
Null samples used in CRC calculations       : Yes
Used interface                              : Installed external ASPI interface
Gap handling                                : Appended to previous track

Used output format              : User Defined Encoder
Selected bitrate                : 32 kBit/s
Quality                         : High
Add ID3 tag                     : No
Command line compressor         : C:ProgrammiFLACflac.exe
Additional command line options : -8 -V -T "ARTIST=%a" -T "TITLE=%t" -T
"ALBUM=%g" -T "DATE=%y" -T "TRACKNUMBER=%n" -T "GENRE=%m" -T "COMMENT=EAC FLAC
-8" %s


TOC of the extracted CD

     Track |   Start  |  Length  | Start sector | End sector 
    ---------------------------------------------------------
        1  |  0:00.32 |  8:44.05 |        32    |    39336   
        2  |  8:44.37 |  5:28.03 |     39337    |    63939   
        3  | 14:12.40 | 13:08.35 |     63940    |   123074   
        4  | 27:21.00 | 11:56.12 |    123075    |   176786   
        5  | 39:17.12 | 12:56.58 |    176787    |   235044   


Track  1

     Filename C:My Rip1 - Raga I.wav

     Pre-gap length  0:00:02.42

     Peak level 97.2 %
     Track quality 100.0 %
     Test CRC CD880087
     Copy CRC CD880087
     Accurately ripped (confidence 11)  [8ECF86DA]
     Copy OK

Track  2

     Filename C:My Rip2 - Saga.wav

     Pre-gap length  0:00:03.73

     Peak level 90.1 %
     Track quality 100.0 %
     Test CRC 98AE1EC6
     Copy CRC 98AE1EC6
     Accurately ripped (confidence 11)  [02F43ABA]
     Copy OK

Track  3

     Filename C:My Rip3 - Raga II.wav

     Pre-gap length  0:00:02.26

     Peak level 83.5 %
     Track quality 100.0 %
     Test CRC 294102DF
     Copy CRC 294102DF
     Accurately ripped (confidence 11)  [ACA467CF]
     Copy OK

Track  4

     Filename C:My Rip4 - Raga III.wav

     Pre-gap length  0:00:03.40

     Peak level 90.9 %
     Track quality 100.0 %
     Test CRC 3A5B68D2
     Copy CRC 3A5B68D2
     Accurately ripped (confidence 10)  [EC288731]
     Copy OK

Track  5

     Filename C:My Rip5 - Raga IV.wav

     Pre-gap length  0:00:02.56

     Peak level 94.2 %
     Track quality 100.0 %
     Test CRC 9AAD6C53
     Copy CRC 9AAD6C53
     Accurately ripped (confidence 10)  [8000B88D]
     Copy OK


All tracks accurately ripped

No errors occurred

End of status report

Comments