World`s biggest lossless archive
Artist
2014 0-9 z y x w v u t s r q p o n m l k j i h g f e d c b a

Black Sabbath - Headless Cross (Remastered 1999) '1989

ArtistBlack Sabbath
Album name Headless Cross (Remastered 1999)
Date 1989
GenreHeavy Metal
Play time 00:40:31
Format FLAC
Media CD
Bitrate 932 Kbps
Size 308.53 Mb
Price$2.47
Download album

For download albums, larger than 1GB, please use program "Download manager" or any other. For Windows or Mac.

Track list

1. (00:01:06) Black Sabbath - The Gates Of Hell
2. (00:06:29) Black Sabbath - Headless Cross
3. (00:04:45) Black Sabbath - Devil And Daughter
4. (00:06:56) Black Sabbath - When Death Calls
5. (00:05:11) Black Sabbath - Kill In The Spirit World
6. (00:05:19) Black Sabbath - Call Of The Wild
7. (00:04:07) Black Sabbath - Black Moon
8. (00:06:38) Black Sabbath - Nightwing

Archive content

Black Sabbath - Headless Cross/ - 0.00
Black Sabbath - Headless Cross/ART/ - 0.00
Black Sabbath - Headless Cross/ART/back.jpg - 5.52
Black Sabbath - Headless Cross/ART/booklet01.jpg - 7.90
Black Sabbath - Headless Cross/ART/booklet02.jpg - 6.52
Black Sabbath - Headless Cross/ART/booklet03.jpg - 5.85
Black Sabbath - Headless Cross/ART/booklet04.jpg - 5.57
Black Sabbath - Headless Cross/ART/cd.jpg - 2.55
Black Sabbath - Headless Cross/ART/front.jpg - 4.00
Black Sabbath - Headless Cross/ART/inlay.jpg - 0.32
Black Sabbath - Headless Cross/ART/Thumbs.db - 0.04
Black Sabbath - Headless Cross/Black Sabbath - Headless Cross.cue - 0.00
Black Sabbath - Headless Cross/Black Sabbath - Headless Cross.flac - 270.25
Black Sabbath - Headless Cross/Black Sabbath - Headless Cross.log - 0.00
Show Log file:
Exact Audio Copy V0.99 prebeta 4 from 23. January 2008

EAC extraction logfile from 24. August 2008, 7:35

Black Sabbath / Headless Cross

Used drive  : TSSTcorpCDDVDW SH-S203B   Adapter: 0  ID: 1

Read mode               : Secure
Utilize accurate stream : Yes
Defeat audio cache      : Yes
Make use of C2 pointers : No

Read offset correction                      : 6
Overread into Lead-In and Lead-Out          : No
Fill up missing offset samples with silence : Yes
Delete leading and trailing silent blocks   : No
Null samples used in CRC calculations       : Yes
Used interface                              : Native Win32 interface for Win NT
& 2000

Used output format              : User Defined Encoder
Selected bitrate                : 320 kBit/s
Quality                         : High
Add ID3 tag                     : No
Command line compressor         : C:Program FilesFLACflac.exe
Additional command line options : -V -8 -T "artist=%a" -T "title=%t" -T
"album=%g" -T "date=%y" -T "tracknumber=%n" -T "genre=%m" %s


TOC of the extracted CD

     Track |   Start  |  Length  | Start sector | End sector 
    ---------------------------------------------------------
        1  |  0:00.00 |  1:06.70 |         0    |     5019   
        2  |  1:06.70 |  6:29.00 |      5020    |    34194   
        3  |  7:35.70 |  4:44.52 |     34195    |    55546   
        4  | 12:20.47 |  6:55.48 |     55547    |    86719   
        5  | 19:16.20 |  5:11.22 |     86720    |   110066   
        6  | 24:27.42 |  5:19.00 |    110067    |   133991   
        7  | 29:46.42 |  4:06.35 |    133992    |   152476   
        8  | 33:53.02 |  6:38.25 |    152477    |   182351   



Range status and errors

Selected range

     Filename D:Black Sabbath - Headless Cross.wav

     Peak level 98.8 %
     Range quality 100.0 %
     Copy CRC C467ADD5
     Copy OK

No errors occurred

 
AccurateRip summary
 
Track  1  accurately ripped (confidence 4)  [3112F500]
Track  2  accurately ripped (confidence 4)  [285EF35C]
Track  3  accurately ripped (confidence 4)  [7BCD7CE0]
Track  4  accurately ripped (confidence 4)  [84C66C1F]
Track  5  accurately ripped (confidence 4)  [AD48A000]
Track  6  accurately ripped (confidence 4)  [9DF82F6D]
Track  7  accurately ripped (confidence 4)  [75067FD2]
Track  8  accurately ripped (confidence 4)  [40EB30E6]
 
All tracks accurately ripped

End of status report

Comments