World`s biggest lossless archive
Artist
2014 0-9 z y x w v u t s r q p o n m l k j i h g f e d c b a

Kontakte - Soundtracks To Lost Road Movies '2008

Soundtracks To Lost Road Movies
ArtistKontakte
Album name Soundtracks To Lost Road Movies
Date 2008
GenrePost Rock
Play time 01:15:55
Format FLAC
Media CD
Bitrate 960 Kbps
Size 399.50 Mb
Price$3.20
Download album

For download albums, larger than 1GB, please use program "Download manager" or any other. For Windows or Mac.

Track list

01. Pacific Coast Highway 7:30
02. Motorik 5:00
03. Ghosts Of Electricity 5:37
04. Lifes Road Movies 6:32
05. Sterile World 4:21
06. Two And A Half Thousand Miles 9:52
07. Pacific Coast Highway (Twelve Remix) 6:07
08. Motorik (Matt Bartram Remix) 4:48
09. Ghosts Of Electricity (Electric Loop Remix) 4:31
10. Lifes Road Movies (Winterlight Remix) 5:37
11. Sterile World (Polysicness Remix) 6:25
12. Two And A Half Thousand Miles (Oppressed By The Line Remix) 9:22

Archive content

Kontakte-Soundtracks_To_Lost_Road_Movies-2008-(FLAC)/ - 0.00
Kontakte-Soundtracks_To_Lost_Road_Movies-2008-(FLAC)/05 - Sterile World.flac - 21.83
Kontakte-Soundtracks_To_Lost_Road_Movies-2008-(FLAC)/08 - Motorik (Matt Bartram Remix).flac - 22.18
Kontakte-Soundtracks_To_Lost_Road_Movies-2008-(FLAC)/07 - Pacific Coast Highway (Twelve Remix).flac - 29.61
Kontakte-Soundtracks_To_Lost_Road_Movies-2008-(FLAC)/09 - Ghosts Of Electricty (Electric Loop Orchestra Remix).flac - 30.95
Kontakte-Soundtracks_To_Lost_Road_Movies-2008-(FLAC)/12 - Two And A Half Thousand Miles (Oppressed By The Line Remix).flac - 50.69
Kontakte-Soundtracks_To_Lost_Road_Movies-2008-(FLAC)/03 - Ghosts Of Electricty.flac - 24.66
Kontakte-Soundtracks_To_Lost_Road_Movies-2008-(FLAC)/Soundtracks To Lost Road Movies.cue - 0.00
Kontakte-Soundtracks_To_Lost_Road_Movies-2008-(FLAC)/11 - Sterile World (Polysicness Remix).flac - 35.76
Kontakte-Soundtracks_To_Lost_Road_Movies-2008-(FLAC)/04 - Life's Road Movies.flac - 32.55
Kontakte-Soundtracks_To_Lost_Road_Movies-2008-(FLAC)/10 - Life's Road Movies (Winterlight Remix).flac - 38.69
Kontakte-Soundtracks_To_Lost_Road_Movies-2008-(FLAC)/Kontakte - Soundtracks To Lost Road Movies.log - 0.01
Kontakte-Soundtracks_To_Lost_Road_Movies-2008-(FLAC)/02 - Motorik.flac - 21.07
Kontakte-Soundtracks_To_Lost_Road_Movies-2008-(FLAC)/01 - Pacific Coast Highway.flac - 41.65
Kontakte-Soundtracks_To_Lost_Road_Movies-2008-(FLAC)/06 - Two And A Half Thousand Miles.flac - 49.85
Show Log file:
Exact Audio Copy V0.99 prebeta 4 from 23. January 2008

EAC extraction logfile from 12. November 2008, 19:55

Kontakte / Soundtracks To Lost Road Movies

Used drive  : PLEXTOR DVDR   PX-750A   Adapter: 0  ID: 0

Read mode               : Secure
Utilize accurate stream : Yes
Defeat audio cache      : Yes
Make use of C2 pointers : No

Read offset correction                      : 102
Overread into Lead-In and Lead-Out          : No
Fill up missing offset samples with silence : Yes
Delete leading and trailing silent blocks   : No
Null samples used in CRC calculations       : Yes
Used interface                              : Installed external ASPI interface
Gap handling                                : Appended to previous track

Used output format              : User Defined Encoder
Selected bitrate                : 192 kBit/s
Quality                         : High
Add ID3 tag                     : No
Command line compressor         : C:Program FilesEACExact Audio
CopyFLACflac.exe
Additional command line options : -V -8 -T "artist=%a" -T "title=%t" -T
"album=%g" -T "date=%y" -T "tracknumber=%n" -T "genre=%m" %s


TOC of the extracted CD

     Track |   Start  |  Length  | Start sector | End sector 
    ---------------------------------------------------------
        1  |  0:00.00 |  7:31.22 |         0    |    33846   
        2  |  7:31.22 |  5:00.55 |     33847    |    56401   
        3  | 12:32.02 |  5:37.39 |     56402    |    81715   
        4  | 18:09.41 |  6:32.69 |     81716    |   111184   
        5  | 24:42.35 |  4:21.59 |    111185    |   130818   
        6  | 29:04.19 |  9:54.02 |    130819    |   175370   
        7  | 38:58.21 |  6:08.24 |    175371    |   202994   
        8  | 45:06.45 |  4:49.17 |    202995    |   224686   
        9  | 49:55.62 |  4:32.02 |    224687    |   245088   
       10  | 54:27.64 |  5:38.03 |    245089    |   270441   
       11  | 60:05.67 |  6:26.06 |    270442    |   299397   
       12  | 66:31.73 |  9:23.27 |    299398    |   341649   


Track  1

     Filename E:FLACKontakte - Soundtracks To Lost Road Movies1 - Pacific Coast
Highway.wav

     Pre-gap length  0:00:02.00

     Peak level 54.5 %
     Track quality 99.9 %
     Test CRC 9C03345A
     Copy CRC 9C03345A
     Track not present in AccurateRip database
     Copy OK

Track  2

     Filename E:FLACKontakte - Soundtracks To Lost Road Movies2 - Motorik.wav

     Peak level 54.6 %
     Track quality 100.0 %
     Test CRC 71CD0171
     Copy CRC 71CD0171
     Track not present in AccurateRip database
     Copy OK

Track  3

     Filename E:FLACKontakte - Soundtracks To Lost Road Movies3 - Ghosts Of
Electricty.wav

     Peak level 54.6 %
     Track quality 100.0 %
     Test CRC F34540BC
     Copy CRC F34540BC
     Track not present in AccurateRip database
     Copy OK

Track  4

     Filename E:FLACKontakte - Soundtracks To Lost Road Movies4 - Life's Road
Movies.wav

     Peak level 54.6 %
     Track quality 100.0 %
     Test CRC 94C1FCFE
     Copy CRC 94C1FCFE
     Track not present in AccurateRip database
     Copy OK

Track  5

     Filename E:FLACKontakte - Soundtracks To Lost Road Movies5 - Sterile
World.wav

     Peak level 54.6 %
     Track quality 100.0 %
     Test CRC CDFFC22D
     Copy CRC CDFFC22D
     Track not present in AccurateRip database
     Copy OK

Track  6

     Filename E:FLACKontakte - Soundtracks To Lost Road Movies6 - Two And A
Half Thousand Miles.wav

     Peak level 54.6 %
     Track quality 99.9 %
     Test CRC 30E1B014
     Copy CRC 30E1B014
     Track not present in AccurateRip database
     Copy OK

Track  7

     Filename E:FLACKontakte - Soundtracks To Lost Road Movies7 - Pacific Coast
Highway (Twelve Remix).wav

     Peak level 54.5 %
     Track quality 100.0 %
     Test CRC 51695D14
     Copy CRC 51695D14
     Track not present in AccurateRip database
     Copy OK

Track  8

     Filename E:FLACKontakte - Soundtracks To Lost Road Movies8 - Motorik (Matt
Bartram Remix).wav

     Peak level 54.6 %
     Track quality 99.9 %
     Test CRC E9BE6A3E
     Copy CRC E9BE6A3E
     Track not present in AccurateRip database
     Copy OK

Track  9

     Filename E:FLACKontakte - Soundtracks To Lost Road Movies9 - Ghosts Of
Electricty (Electric Loop Orchestra Remix).wav

     Peak level 54.6 %
     Track quality 100.0 %
     Test CRC D28B75D9
     Copy CRC D28B75D9
     Track not present in AccurateRip database
     Copy OK

Track 10

     Filename E:FLACKontakte - Soundtracks To Lost Road Movies10 - Life's Road
Movies (Winterlight Remix).wav

     Peak level 54.6 %
     Track quality 99.9 %
     Test CRC 95D45AAC
     Copy CRC 95D45AAC
     Track not present in AccurateRip database
     Copy OK

Track 11

     Filename E:FLACKontakte - Soundtracks To Lost Road Movies11 - Sterile World
(Polysicness Remix).wav

     Peak level 54.6 %
     Track quality 100.0 %
     Test CRC 3CAE553F
     Copy CRC 3CAE553F
     Track not present in AccurateRip database
     Copy OK

Track 12

     Filename E:FLACKontakte - Soundtracks To Lost Road Movies12 - Two And A
Half Thousand Miles (Oppressed By The Line Remix).wav

     Peak level 54.6 %
     Track quality 99.9 %
     Test CRC 18E77998
     Copy CRC 18E77998
     Track not present in AccurateRip database
     Copy OK


None of the tracks are present in the AccurateRip database

No errors occurred

End of status report

Comments